chaturbate amycrystall 2019-10-10 14:56:44

Click the screencaps for zoom.


Public webcam show of amycrystall chaturbate from 2019-10-10 14:56:44

Untouched and best quality possible.

Size: 18.49MB

Duration: 4m:35s

Dimension: 640x480

Framerate: 30FPS



User account required



Create an User account

Are you the model?


{
 "streams":[
  {
   "index":0,
   "codec_name":"timed_id3",
   "codec_long_name":"timed ID3 metadata",
   "codec_type":"data",
   "codec_tag_string":"ID3 ",
   "codec_tag":"0x20334449",
   "id":"0x102",
   "r_frame_rate":"0/0",
   "avg_frame_rate":"0/0",
   "time_base":"1/90000",
   "start_pts":25514190,
   "start_time":"283.491000",
   "duration_ts":24843270,
   "duration":"276.036333",
   "disposition":{
    "default":0,
    "dub":0,
    "original":0,
    "comment":0,
    "lyrics":0,
    "karaoke":0,
    "forced":0,
    "hearing_impaired":0,
    "visual_impaired":0,
    "clean_effects":0,
    "attached_pic":0,
    "timed_thumbnails":0
   }
  },
  {
   "index":1,
   "codec_name":"h264",
   "codec_long_name":"H.264 / AVC / MPEG-4 AVC / MPEG-4 part 10",
   "profile":"Main",
   "codec_type":"video",
   "codec_time_base":"1/60",
   "codec_tag_string":"[
    27
   ][
    0
   ][
    0
   ][
    0
   ]",
   "codec_tag":"0x001b",
   "width":640,
   "height":480,
   "coded_width":640,
   "coded_height":480,
   "has_b_frames":0,
   "sample_aspect_ratio":"1:1",
   "display_aspect_ratio":"4:3",
   "pix_fmt":"yuv420p",
   "level":30,
   "chroma_location":"left",
   "field_order":"progressive",
   "refs":1,
   "is_avc":"false",
   "nal_length_size":"0",
   "id":"0x100",
   "r_frame_rate":"30/1",
   "avg_frame_rate":"30/1",
   "time_base":"1/90000",
   "start_pts":25518330,
   "start_time":"283.537000",
   "duration_ts":24839130,
   "duration":"275.990333",
   "bits_per_raw_sample":"8",
   "disposition":{
    "default":0,
    "dub":0,
    "original":0,
    "comment":0,
    "lyrics":0,
    "karaoke":0,
    "forced":0,
    "hearing_impaired":0,
    "visual_impaired":0,
    "clean_effects":0,
    "attached_pic":0,
    "timed_thumbnails":0
   }
  },
  {
   "index":2,
   "codec_name":"aac",
   "codec_long_name":"AAC (Advanced Audio Coding)",
   "profile":"LC",
   "codec_type":"audio",
   "codec_time_base":"1/16000",
   "codec_tag_string":"[
    15
   ][
    0
   ][
    0
   ][
    0
   ]",
   "codec_tag":"0x000f",
   "sample_fmt":"fltp",
   "sample_rate":"16000",
   "channels":1,
   "channel_layout":"mono",
   "bits_per_sample":0,
   "id":"0x101",
   "r_frame_rate":"0/0",
   "avg_frame_rate":"0/0",
   "time_base":"1/90000",
   "start_pts":25514190,
   "start_time":"283.491000",
   "duration_ts":24833520,
   "duration":"275.928000",
   "bit_rate":"45500",
   "disposition":{
    "default":0,
    "dub":0,
    "original":0,
    "comment":0,
    "lyrics":0,
    "karaoke":0,
    "forced":0,
    "hearing_impaired":0,
    "visual_impaired":0,
    "clean_effects":0,
    "attached_pic":0,
    "timed_thumbnails":0
   }
  }
 ],
 "format":{
  "filename":"chaturbate-amycrystall-1570719404.mp4",
  "nb_streams":3,
  "nb_programs":1,
  "format_name":"mpegts",
  "format_long_name":"MPEG-TS (MPEG-2 Transport Stream)",
  "start_time":"283.491000",
  "duration":"276.036333",
  "size":"19383928",
  "bit_rate":"561779",
  "probe_score":50
 }
}

Related videos

chaturbate amycrystall 2019-10-10 15:10:11
41m:58s
164.90MB
640x480
30FPS
chaturbate amycrystall 2019-10-10 19:32:49
1h:53m:17s
390.74MB
640x480
30FPS
chaturbate amycrystall 2019-10-11 14:18:55
27m:5s
110.40MB
640x480
30FPS
chaturbate amycrystall 2019-10-11 16:26:06
18m:37s
80.69MB
640x480
30FPS
chaturbate amycrystall 2019-10-11 16:46:52
58m:59s
232.00MB
640x480
30FPS
chaturbate amycrystall 2019-10-12 13:00:46
45m:55s
184.28MB
640x480
24FPS
chaturbate amycrystall 2019-10-10 13:26:25
1h:6m:55s
266.83MB
640x480
30FPS
chaturbate amycrystall 2019-10-07 19:54:00
1h:3m:34s
217.34MB
640x480
30FPS
chaturbate amycrystall 2019-10-07 15:53:21
3h:23m:14s
744.81MB
640x480
30FPS
chaturbate amycrystall 2019-10-04 17:26:32
2h:35m:57s
604.59MB
640x480
30FPS
chaturbate amycrystall 2019-10-04 16:44:22
30m:59s
98.54MB
640x480
30FPS
chaturbate amycrystall 2019-10-04 14:10:25
1h:43m:8s
452.25MB
640x480
30FPS