chaturbate annybigassxxx 2019-10-10 14:55:54

Click the screencaps for zoom.


Public webcam show of annybigassxxx chaturbate from 2019-10-10 14:55:54

Untouched and best quality possible.

Size: 22.31MB

Duration: 4m:53s

Dimension: 640x480

Framerate: 30FPS



User account required



Create an User account

Are you the model?


{
 "streams":[
  {
   "index":0,
   "codec_name":"timed_id3",
   "codec_long_name":"timed ID3 metadata",
   "codec_type":"data",
   "codec_tag_string":"ID3 ",
   "codec_tag":"0x20334449",
   "id":"0x102",
   "r_frame_rate":"0/0",
   "avg_frame_rate":"0/0",
   "time_base":"1/90000",
   "start_pts":20251890,
   "start_time":"225.021000",
   "duration_ts":26452890,
   "duration":"293.921000",
   "disposition":{
    "default":0,
    "dub":0,
    "original":0,
    "comment":0,
    "lyrics":0,
    "karaoke":0,
    "forced":0,
    "hearing_impaired":0,
    "visual_impaired":0,
    "clean_effects":0,
    "attached_pic":0,
    "timed_thumbnails":0
   }
  },
  {
   "index":1,
   "codec_name":"h264",
   "codec_long_name":"H.264 / AVC / MPEG-4 AVC / MPEG-4 part 10",
   "profile":"Main",
   "codec_type":"video",
   "codec_time_base":"1/60",
   "codec_tag_string":"[
    27
   ][
    0
   ][
    0
   ][
    0
   ]",
   "codec_tag":"0x001b",
   "width":640,
   "height":480,
   "coded_width":640,
   "coded_height":480,
   "has_b_frames":0,
   "sample_aspect_ratio":"1:1",
   "display_aspect_ratio":"4:3",
   "pix_fmt":"yuv420p",
   "level":30,
   "chroma_location":"left",
   "field_order":"progressive",
   "refs":1,
   "is_avc":"false",
   "nal_length_size":"0",
   "id":"0x100",
   "r_frame_rate":"30/1",
   "avg_frame_rate":"30/1",
   "time_base":"1/90000",
   "start_pts":20251890,
   "start_time":"225.021000",
   "duration_ts":26407200,
   "duration":"293.413333",
   "bits_per_raw_sample":"8",
   "disposition":{
    "default":0,
    "dub":0,
    "original":0,
    "comment":0,
    "lyrics":0,
    "karaoke":0,
    "forced":0,
    "hearing_impaired":0,
    "visual_impaired":0,
    "clean_effects":0,
    "attached_pic":0,
    "timed_thumbnails":0
   }
  },
  {
   "index":2,
   "codec_name":"aac",
   "codec_long_name":"AAC (Advanced Audio Coding)",
   "profile":"LC",
   "codec_type":"audio",
   "codec_time_base":"1/16000",
   "codec_tag_string":"[
    15
   ][
    0
   ][
    0
   ][
    0
   ]",
   "codec_tag":"0x000f",
   "sample_fmt":"fltp",
   "sample_rate":"16000",
   "channels":1,
   "channel_layout":"mono",
   "bits_per_sample":0,
   "id":"0x101",
   "r_frame_rate":"0/0",
   "avg_frame_rate":"0/0",
   "time_base":"1/90000",
   "start_pts":20255040,
   "start_time":"225.056000",
   "duration_ts":26449740,
   "duration":"293.886000",
   "bit_rate":"43750",
   "disposition":{
    "default":0,
    "dub":0,
    "original":0,
    "comment":0,
    "lyrics":0,
    "karaoke":0,
    "forced":0,
    "hearing_impaired":0,
    "visual_impaired":0,
    "clean_effects":0,
    "attached_pic":0,
    "timed_thumbnails":0
   }
  }
 ],
 "format":{
  "filename":"chaturbate-annybigassxxx-1570719354.mp4",
  "nb_streams":3,
  "nb_programs":1,
  "format_name":"mpegts",
  "format_long_name":"MPEG-TS (MPEG-2 Transport Stream)",
  "start_time":"225.021000",
  "duration":"293.921000",
  "size":"23389456",
  "bit_rate":"636618",
  "probe_score":50
 }
}

Related videos

chaturbate annybigassxxx 2019-10-10 16:03:27
44m:51s
129.75MB
854x480
30FPS
chaturbate annybigassxxx 2019-10-10 17:37:27
10m:44s
30.90MB
640x480
30FPS
chaturbate annybigassxxx 2019-10-10 17:52:36
3m:18s
12.48MB
640x480
21FPS
chaturbate annybigassxxx 2019-10-10 17:57:36
21m:51s
106.86MB
640x480
30FPS
chaturbate annybigassxxx 2019-10-10 18:29:27
7m:32s
36.15MB
854x480
30FPS
chaturbate annybigassxxx 2019-10-11 04:17:43
54m:48s
204.16MB
640x480
30FPS
chaturbate annybigassxxx 2019-10-10 14:11:54
39m:10s
126.65MB
854x480
30FPS
chaturbate annybigassxxx 2019-10-10 12:19:37
1h:11m:21s
290.76MB
854x480
30FPS
chaturbate annybigassxxx 2019-10-10 11:27:38
3m:24s
16.18MB
640x480
27FPS
chaturbate annybigassxxx 2019-10-10 11:10:18
9m:13s
41.37MB
640x480
30FPS
chaturbate annybigassxxx 2019-10-10 11:05:13
3m:29s
12.54MB
854x480
20FPS
chaturbate annybigassxxx 2019-10-10 07:06:17
14m:21s
54.25MB
640x480
30FPS