chaturbate blur_e 2019-10-10 14:57:18

Click the screencaps for zoom.


Public webcam show of blur_e chaturbate from 2019-10-10 14:57:18

Untouched and best quality possible.

Size: 29.91MB

Duration: 6m:23s

Dimension: 768x576

Framerate: 30FPS



User account required



Create an User account

Are you the model?


You might need VLC to play the video (every advanced media player will do).
VLC for Android

VLC for Windows/Mac OS X/Linux


{
 "streams":[
  {
   "index":0,
   "codec_name":"timed_id3",
   "codec_long_name":"timed ID3 metadata",
   "codec_type":"data",
   "codec_tag_string":"ID3 ",
   "codec_tag":"0x20334449",
   "id":"0x102",
   "r_frame_rate":"0/0",
   "avg_frame_rate":"0/0",
   "time_base":"1/90000",
   "start_pts":25380720,
   "start_time":"282.008000",
   "duration_ts":34560120,
   "duration":"384.001333",
   "disposition":{
    "default":0,
    "dub":0,
    "original":0,
    "comment":0,
    "lyrics":0,
    "karaoke":0,
    "forced":0,
    "hearing_impaired":0,
    "visual_impaired":0,
    "clean_effects":0,
    "attached_pic":0,
    "timed_thumbnails":0
   }
  },
  {
   "index":1,
   "codec_name":"h264",
   "codec_long_name":"H.264 / AVC / MPEG-4 AVC / MPEG-4 part 10",
   "profile":"Main",
   "codec_type":"video",
   "codec_time_base":"1/60",
   "codec_tag_string":"[
    27
   ][
    0
   ][
    0
   ][
    0
   ]",
   "codec_tag":"0x001b",
   "width":768,
   "height":576,
   "coded_width":768,
   "coded_height":576,
   "has_b_frames":0,
   "sample_aspect_ratio":"1:1",
   "display_aspect_ratio":"4:3",
   "pix_fmt":"yuv420p",
   "level":31,
   "chroma_location":"left",
   "field_order":"progressive",
   "refs":1,
   "is_avc":"false",
   "nal_length_size":"0",
   "id":"0x100",
   "r_frame_rate":"30/1",
   "avg_frame_rate":"30/1",
   "time_base":"1/90000",
   "start_pts":25381350,
   "start_time":"282.015000",
   "duration_ts":34559490,
   "duration":"383.994333",
   "bits_per_raw_sample":"8",
   "disposition":{
    "default":0,
    "dub":0,
    "original":0,
    "comment":0,
    "lyrics":0,
    "karaoke":0,
    "forced":0,
    "hearing_impaired":0,
    "visual_impaired":0,
    "clean_effects":0,
    "attached_pic":0,
    "timed_thumbnails":0
   }
  },
  {
   "index":2,
   "codec_name":"aac",
   "codec_long_name":"AAC (Advanced Audio Coding)",
   "profile":"LC",
   "codec_type":"audio",
   "codec_time_base":"1/16000",
   "codec_tag_string":"[
    15
   ][
    0
   ][
    0
   ][
    0
   ]",
   "codec_tag":"0x000f",
   "sample_fmt":"fltp",
   "sample_rate":"16000",
   "channels":1,
   "channel_layout":"mono",
   "bits_per_sample":0,
   "id":"0x101",
   "r_frame_rate":"0/0",
   "avg_frame_rate":"0/0",
   "time_base":"1/90000",
   "start_pts":25380720,
   "start_time":"282.008000",
   "duration_ts":34545870,
   "duration":"383.843000",
   "bit_rate":"45000",
   "disposition":{
    "default":0,
    "dub":0,
    "original":0,
    "comment":0,
    "lyrics":0,
    "karaoke":0,
    "forced":0,
    "hearing_impaired":0,
    "visual_impaired":0,
    "clean_effects":0,
    "attached_pic":0,
    "timed_thumbnails":0
   }
  }
 ],
 "format":{
  "filename":"chaturbate-blur_e-1570719438.mp4",
  "nb_streams":3,
  "nb_programs":1,
  "format_name":"mpegts",
  "format_long_name":"MPEG-TS (MPEG-2 Transport Stream)",
  "start_time":"282.008000",
  "duration":"384.001333",
  "size":"31365732",
  "bit_rate":"653450",
  "probe_score":50
 }
}

Related videos

chaturbate blur_e 2019-10-10 16:02:12
18m:27s
87.66MB
768x576
30FPS
chaturbate blur_e 2019-10-10 16:51:48
46m:3s
256.49MB
768x576
30FPS
chaturbate blur_e 2019-10-10 17:55:33
20m:1s
119.37MB
768x576
30FPS
chaturbate blur_e 2019-10-11 04:41:41
24m:36s
177.72MB
768x576
30FPS
chaturbate blur_e 2019-10-11 05:07:50
46m:21s
337.48MB
768x576
30FPS
chaturbate blur_e 2019-10-11 06:01:19
12m:58s
104.15MB
768x576
30FPS
chaturbate blur_e 2019-10-10 14:40:42
3m:59s
19.82MB
768x576
30FPS
chaturbate blur_e 2019-10-10 13:26:27
28m:52s
230.18MB
768x576
30FPS
chaturbate blur_e 2019-10-10 13:14:23
7m:43s
61.43MB
768x576
30FPS
chaturbate blur_e 2019-10-10 12:57:33
15m:37s
125.49MB
768x576
30FPS
chaturbate blur_e 2019-10-10 12:45:36
8m:52s
70.72MB
768x576
30FPS
chaturbate blur_e 2019-10-10 02:44:18
17m:43s
135.09MB
768x576
30FPS