chaturbate ebonydivaxxx 2019-10-10 14:56:19

Click the screencaps for zoom.


Public webcam show of ebonydivaxxx chaturbate from 2019-10-10 14:56:19

Untouched and best quality possible.

Size: 20.32MB

Duration: 6m:19s

Dimension: 480x360

Framerate: 30FPS



User account required



Create an User account

Are you the model?


{
 "streams":[
  {
   "index":0,
   "codec_name":"timed_id3",
   "codec_long_name":"timed ID3 metadata",
   "codec_type":"data",
   "codec_tag_string":"ID3 ",
   "codec_tag":"0x20334449",
   "id":"0x102",
   "r_frame_rate":"0/0",
   "avg_frame_rate":"0/0",
   "time_base":"1/90000",
   "start_pts":25642800,
   "start_time":"284.920000",
   "duration_ts":34164570,
   "duration":"379.606333",
   "disposition":{
    "default":0,
    "dub":0,
    "original":0,
    "comment":0,
    "lyrics":0,
    "karaoke":0,
    "forced":0,
    "hearing_impaired":0,
    "visual_impaired":0,
    "clean_effects":0,
    "attached_pic":0,
    "timed_thumbnails":0
   }
  },
  {
   "index":1,
   "codec_name":"h264",
   "codec_long_name":"H.264 / AVC / MPEG-4 AVC / MPEG-4 part 10",
   "profile":"Constrained Baseline",
   "codec_type":"video",
   "codec_time_base":"1/60",
   "codec_tag_string":"[
    27
   ][
    0
   ][
    0
   ][
    0
   ]",
   "codec_tag":"0x001b",
   "width":480,
   "height":360,
   "coded_width":480,
   "coded_height":360,
   "has_b_frames":0,
   "sample_aspect_ratio":"1:1",
   "display_aspect_ratio":"4:3",
   "pix_fmt":"yuv420p",
   "level":30,
   "chroma_location":"left",
   "field_order":"progressive",
   "refs":1,
   "is_avc":"false",
   "nal_length_size":"0",
   "id":"0x100",
   "r_frame_rate":"30/1",
   "avg_frame_rate":"30/1",
   "time_base":"1/90000",
   "start_pts":25653870,
   "start_time":"285.043000",
   "duration_ts":34153500,
   "duration":"379.483333",
   "bits_per_raw_sample":"8",
   "disposition":{
    "default":0,
    "dub":0,
    "original":0,
    "comment":0,
    "lyrics":0,
    "karaoke":0,
    "forced":0,
    "hearing_impaired":0,
    "visual_impaired":0,
    "clean_effects":0,
    "attached_pic":0,
    "timed_thumbnails":0
   }
  },
  {
   "index":2,
   "codec_name":"aac",
   "codec_long_name":"AAC (Advanced Audio Coding)",
   "profile":"LC",
   "codec_type":"audio",
   "codec_time_base":"1/16000",
   "codec_tag_string":"[
    15
   ][
    0
   ][
    0
   ][
    0
   ]",
   "codec_tag":"0x000f",
   "sample_fmt":"fltp",
   "sample_rate":"16000",
   "channels":1,
   "channel_layout":"mono",
   "bits_per_sample":0,
   "id":"0x101",
   "r_frame_rate":"0/0",
   "avg_frame_rate":"0/0",
   "time_base":"1/90000",
   "start_pts":25642800,
   "start_time":"284.920000",
   "duration_ts":34149240,
   "duration":"379.436000",
   "bit_rate":"49125",
   "disposition":{
    "default":0,
    "dub":0,
    "original":0,
    "comment":0,
    "lyrics":0,
    "karaoke":0,
    "forced":0,
    "hearing_impaired":0,
    "visual_impaired":0,
    "clean_effects":0,
    "attached_pic":0,
    "timed_thumbnails":0
   }
  }
 ],
 "format":{
  "filename":"chaturbate-ebonydivaxxx-1570719379.mp4",
  "nb_streams":3,
  "nb_programs":1,
  "format_name":"mpegts",
  "format_long_name":"MPEG-TS (MPEG-2 Transport Stream)",
  "start_time":"284.920000",
  "duration":"379.606333",
  "size":"21309236",
  "bit_rate":"449080",
  "probe_score":50
 }
}

Related videos

chaturbate ebonydivaxxx 2019-10-10 15:41:55
41m:26s
129.58MB
480x360
30FPS
chaturbate ebonydivaxxx 2019-10-11 08:34:04
3m:5s
10.03MB
480x360
24FPS
chaturbate ebonydivaxxx 2019-10-11 08:55:24
16m:49s
57.73MB
480x360
30FPS
chaturbate ebonydivaxxx 2019-10-11 09:13:44
5m:49s
19.57MB
480x360
30FPS
chaturbate ebonydivaxxx 2019-10-11 09:19:53
23m:29s
82.02MB
480x360
30FPS
chaturbate ebonydivaxxx 2019-10-11 09:44:23
7m:47s
25.79MB
480x360
30FPS
chaturbate ebonydivaxxx 2019-10-10 14:24:56
25m:28s
81.42MB
480x360
30FPS
chaturbate ebonydivaxxx 2019-10-10 12:38:05
24m:28s
78.63MB
480x360
30FPS
chaturbate ebonydivaxxx 2019-10-10 12:20:09
12m:34s
37.13MB
480x360
30FPS
chaturbate ebonydivaxxx 2019-10-10 12:08:14
10m:4s
20.76MB
480x360
30FPS
chaturbate ebonydivaxxx 2019-10-10 11:54:52
6m:53s
21.10MB
480x360
30FPS
chaturbate ebonydivaxxx 2019-10-10 11:33:36
15m:50s
44.99MB
480x360
30FPS