chaturbate gianna_michaels 2019-10-10 14:55:59

Click the screencaps for zoom.


Public webcam show of gianna_michaels chaturbate from 2019-10-10 14:55:59

Untouched and best quality possible.

Size: 26.17MB

Duration: 7m:41s

Dimension: 640x480

Framerate: 30FPS



User account required



Create an User account

Are you the model?


{
 "streams":[
  {
   "index":0,
   "codec_name":"timed_id3",
   "codec_long_name":"timed ID3 metadata",
   "codec_type":"data",
   "codec_tag_string":"ID3 ",
   "codec_tag":"0x20334449",
   "id":"0x102",
   "r_frame_rate":"0/0",
   "avg_frame_rate":"0/0",
   "time_base":"1/90000",
   "start_pts":7967430,
   "start_time":"88.527000",
   "duration_ts":41578680,
   "duration":"461.985333",
   "disposition":{
    "default":0,
    "dub":0,
    "original":0,
    "comment":0,
    "lyrics":0,
    "karaoke":0,
    "forced":0,
    "hearing_impaired":0,
    "visual_impaired":0,
    "clean_effects":0,
    "attached_pic":0,
    "timed_thumbnails":0
   }
  },
  {
   "index":1,
   "codec_name":"h264",
   "codec_long_name":"H.264 / AVC / MPEG-4 AVC / MPEG-4 part 10",
   "profile":"Main",
   "codec_type":"video",
   "codec_time_base":"1/60",
   "codec_tag_string":"[
    27
   ][
    0
   ][
    0
   ][
    0
   ]",
   "codec_tag":"0x001b",
   "width":640,
   "height":480,
   "coded_width":640,
   "coded_height":480,
   "has_b_frames":0,
   "sample_aspect_ratio":"1:1",
   "display_aspect_ratio":"4:3",
   "pix_fmt":"yuv420p",
   "level":30,
   "chroma_location":"left",
   "field_order":"progressive",
   "refs":1,
   "is_avc":"false",
   "nal_length_size":"0",
   "id":"0x100",
   "r_frame_rate":"30/1",
   "avg_frame_rate":"30/1",
   "time_base":"1/90000",
   "start_pts":7972290,
   "start_time":"88.581000",
   "duration_ts":41573820,
   "duration":"461.931333",
   "bits_per_raw_sample":"8",
   "disposition":{
    "default":0,
    "dub":0,
    "original":0,
    "comment":0,
    "lyrics":0,
    "karaoke":0,
    "forced":0,
    "hearing_impaired":0,
    "visual_impaired":0,
    "clean_effects":0,
    "attached_pic":0,
    "timed_thumbnails":0
   }
  },
  {
   "index":2,
   "codec_name":"aac",
   "codec_long_name":"AAC (Advanced Audio Coding)",
   "profile":"LC",
   "codec_type":"audio",
   "codec_time_base":"1/16000",
   "codec_tag_string":"[
    15
   ][
    0
   ][
    0
   ][
    0
   ]",
   "codec_tag":"0x000f",
   "sample_fmt":"fltp",
   "sample_rate":"16000",
   "channels":1,
   "channel_layout":"mono",
   "bits_per_sample":0,
   "id":"0x101",
   "r_frame_rate":"0/0",
   "avg_frame_rate":"0/0",
   "time_base":"1/90000",
   "start_pts":7967430,
   "start_time":"88.527000",
   "duration_ts":41556960,
   "duration":"461.744000",
   "bit_rate":"47125",
   "disposition":{
    "default":0,
    "dub":0,
    "original":0,
    "comment":0,
    "lyrics":0,
    "karaoke":0,
    "forced":0,
    "hearing_impaired":0,
    "visual_impaired":0,
    "clean_effects":0,
    "attached_pic":0,
    "timed_thumbnails":0
   }
  }
 ],
 "format":{
  "filename":"chaturbate-gianna_michaels-1570719359.mp4",
  "nb_streams":3,
  "nb_programs":1,
  "format_name":"mpegts",
  "format_long_name":"MPEG-TS (MPEG-2 Transport Stream)",
  "start_time":"88.527000",
  "duration":"461.985333",
  "size":"27440480",
  "bit_rate":"475174",
  "probe_score":50
 }
}

Related videos

chaturbate gianna_michaels 2019-10-10 22:30:04
11m:49s
28.81MB
854x480
30FPS
chaturbate gianna_michaels 2019-10-10 22:44:15
8m:44s
24.53MB
854x480
30FPS
chaturbate gianna_michaels 2019-10-10 23:16:55
1h:1m:48s
117.61MB
854x480
30FPS
chaturbate gianna_michaels 2019-10-11 00:18:56
17m:27s
37.49MB
854x480
30FPS
chaturbate gianna_michaels 2019-10-11 04:09:18
43m:53s
157.29MB
854x480
30FPS
chaturbate gianna_michaels 2019-10-11 08:36:26
46m:17s
123.37MB
640x480
30FPS
chaturbate gianna_michaels 2019-10-10 14:48:53
5m:23s
14.52MB
640x480
14FPS
chaturbate gianna_michaels 2019-10-10 14:28:54
17m:44s
53.67MB
640x480
30FPS
chaturbate gianna_michaels 2019-10-10 14:08:56
7m:46s
19.31MB
640x480
30FPS
chaturbate gianna_michaels 2019-10-10 13:32:25
34m:31s
84.40MB
854x480
30FPS
chaturbate gianna_michaels 2019-10-08 13:44:29
36m:7s
80.50MB
854x480
30FPS
chaturbate gianna_michaels 2019-10-08 12:26:11
17m:5s
30.65MB
854x480
30FPS