chaturbate hanna_paz_ 2019-01-22 05:52:44

Click the screencaps for zoom.


Public webcam show of hanna_paz_ chaturbate from 2019-01-22 05:52:44

Untouched and best quality possible.

Size: 344.57MB

Duration: 1h:26m:37s

Dimension: 320x240

Framerate: 0FPS


User account required



Create an User account

Are you the model?


{
 "streams":[
  {
   "index":0,
   "codec_name":"timed_id3",
   "codec_long_name":"timed ID3 metadata",
   "codec_type":"data",
   "codec_tag_string":"ID3 ",
   "codec_tag":"0x20334449",
   "id":"0x102",
   "r_frame_rate":"0/0",
   "avg_frame_rate":"0/0",
   "time_base":"1/90000",
   "start_pts":71152650,
   "start_time":"790.585000",
   "duration_ts":467772420,
   "duration":"5197.471333",
   "disposition":{
    "default":0,
    "dub":0,
    "original":0,
    "comment":0,
    "lyrics":0,
    "karaoke":0,
    "forced":0,
    "hearing_impaired":0,
    "visual_impaired":0,
    "clean_effects":0,
    "attached_pic":0,
    "timed_thumbnails":0
   }
  },
  {
   "index":1,
   "codec_name":"h264",
   "codec_long_name":"H.264 / AVC / MPEG-4 AVC / MPEG-4 part 10",
   "profile":"Main",
   "codec_type":"video",
   "codec_time_base":"1/60",
   "codec_tag_string":"[
    27
   ][
    0
   ][
    0
   ][
    0
   ]",
   "codec_tag":"0x001b",
   "width":320,
   "height":240,
   "coded_width":320,
   "coded_height":240,
   "has_b_frames":0,
   "sample_aspect_ratio":"1:1",
   "display_aspect_ratio":"4:3",
   "pix_fmt":"yuv420p",
   "level":30,
   "color_range":"tv",
   "chroma_location":"left",
   "field_order":"progressive",
   "refs":1,
   "is_avc":"false",
   "nal_length_size":"0",
   "id":"0x100",
   "r_frame_rate":"30/1",
   "avg_frame_rate":"30/1",
   "time_base":"1/90000",
   "start_pts":71160030,
   "start_time":"790.667000",
   "duration_ts":467765040,
   "duration":"5197.389333",
   "bits_per_raw_sample":"8",
   "disposition":{
    "default":0,
    "dub":0,
    "original":0,
    "comment":0,
    "lyrics":0,
    "karaoke":0,
    "forced":0,
    "hearing_impaired":0,
    "visual_impaired":0,
    "clean_effects":0,
    "attached_pic":0,
    "timed_thumbnails":0
   }
  },
  {
   "index":2,
   "codec_name":"aac",
   "codec_long_name":"AAC (Advanced Audio Coding)",
   "profile":"LC",
   "codec_type":"audio",
   "codec_time_base":"1/16000",
   "codec_tag_string":"[
    15
   ][
    0
   ][
    0
   ][
    0
   ]",
   "codec_tag":"0x000f",
   "sample_fmt":"fltp",
   "sample_rate":"16000",
   "channels":1,
   "channel_layout":"mono",
   "bits_per_sample":0,
   "id":"0x101",
   "r_frame_rate":"0/0",
   "avg_frame_rate":"0/0",
   "time_base":"1/90000",
   "start_pts":71152650,
   "start_time":"790.585000",
   "duration_ts":467756280,
   "duration":"5197.292000",
   "bit_rate":"43500",
   "disposition":{
    "default":0,
    "dub":0,
    "original":0,
    "comment":0,
    "lyrics":0,
    "karaoke":0,
    "forced":0,
    "hearing_impaired":0,
    "visual_impaired":0,
    "clean_effects":0,
    "attached_pic":0,
    "timed_thumbnails":0
   }
  }
 ],
 "format":{
  "filename":"chaturbate-hanna_paz_-1548136364.mp4",
  "nb_streams":3,
  "nb_programs":1,
  "format_name":"mpegts",
  "format_long_name":"MPEG-TS (MPEG-2 Transport Stream)",
  "start_time":"790.585000",
  "duration":"5197.471333",
  "size":"361310996",
  "bit_rate":"556133",
  "probe_score":50
 }
}

Related videos

chaturbate hanna_paz_ 2019-01-22 09:03:00
1h:54m:45s
476.64MB
320x240
0FPS
chaturbate hanna_paz_ 2019-01-23 03:35:38
2h:23m:46s
533.07MB
320x240
0FPS
chaturbate hanna_paz_ 2019-01-23 06:48:24
15m:34s
59.59MB
320x240
0FPS
chaturbate hanna_paz_ 2019-01-23 07:44:16
18m:24s
69.65MB
320x240
0FPS
chaturbate hanna_paz_ 2019-01-23 08:14:11
2h:32m:4s
501.16MB
320x240
0FPS
chaturbate hanna_paz_ 2019-01-24 05:08:06
1h:45m:55s
457.01MB
320x240
0FPS
chaturbate hanna_paz_ 2019-01-22 04:14:57
35m:16s
136.87MB
320x240
0FPS
chaturbate hanna_paz_ 2019-01-21 09:39:06
20m:31s
70.35MB
320x240
0FPS
chaturbate hanna_paz_ 2019-01-21 08:52:24
27m:34s
104.69MB
320x240
0FPS
chaturbate hanna_paz_ 2019-01-21 06:09:42
1h:57m:2s
400.52MB
320x240
0FPS
chaturbate hanna_paz_ 2019-01-21 03:20:07
40m:27s
168.80MB
320x240
0FPS
chaturbate hanna_paz_ 2019-01-19 07:55:00
2h:1m:16s
387.71MB
320x240
0FPS