chaturbate harrietbaker 2019-10-10 14:56:19

Click the screencaps for zoom.


Public webcam show of harrietbaker chaturbate from 2019-10-10 14:56:19

Untouched and best quality possible.

Size: 28.52MB

Duration: 3m:40s

Dimension: 1280x720

Framerate: 30FPS



User account required



Create an User account

Are you the model?


{
 "streams":[
  {
   "index":0,
   "codec_name":"timed_id3",
   "codec_long_name":"timed ID3 metadata",
   "codec_type":"data",
   "codec_tag_string":"ID3 ",
   "codec_tag":"0x20334449",
   "id":"0x102",
   "r_frame_rate":"0/0",
   "avg_frame_rate":"0/0",
   "time_base":"1/90000",
   "start_pts":27812160,
   "start_time":"309.024000",
   "duration_ts":19842600,
   "duration":"220.473333",
   "disposition":{
    "default":0,
    "dub":0,
    "original":0,
    "comment":0,
    "lyrics":0,
    "karaoke":0,
    "forced":0,
    "hearing_impaired":0,
    "visual_impaired":0,
    "clean_effects":0,
    "attached_pic":0,
    "timed_thumbnails":0
   }
  },
  {
   "index":1,
   "codec_name":"h264",
   "codec_long_name":"H.264 / AVC / MPEG-4 AVC / MPEG-4 part 10",
   "profile":"Main",
   "codec_type":"video",
   "codec_time_base":"1/60",
   "codec_tag_string":"[
    27
   ][
    0
   ][
    0
   ][
    0
   ]",
   "codec_tag":"0x001b",
   "width":1280,
   "height":720,
   "coded_width":1280,
   "coded_height":720,
   "has_b_frames":0,
   "sample_aspect_ratio":"1:1",
   "display_aspect_ratio":"16:9",
   "pix_fmt":"yuv420p",
   "level":31,
   "chroma_location":"left",
   "field_order":"progressive",
   "refs":1,
   "is_avc":"false",
   "nal_length_size":"0",
   "id":"0x100",
   "r_frame_rate":"30/1",
   "avg_frame_rate":"30/1",
   "time_base":"1/90000",
   "start_pts":27812160,
   "start_time":"309.024000",
   "duration_ts":19842600,
   "duration":"220.473333",
   "bits_per_raw_sample":"8",
   "disposition":{
    "default":0,
    "dub":0,
    "original":0,
    "comment":0,
    "lyrics":0,
    "karaoke":0,
    "forced":0,
    "hearing_impaired":0,
    "visual_impaired":0,
    "clean_effects":0,
    "attached_pic":0,
    "timed_thumbnails":0
   }
  },
  {
   "index":2,
   "codec_name":"aac",
   "codec_long_name":"AAC (Advanced Audio Coding)",
   "profile":"LC",
   "codec_type":"audio",
   "codec_time_base":"1/16000",
   "codec_tag_string":"[
    15
   ][
    0
   ][
    0
   ][
    0
   ]",
   "codec_tag":"0x000f",
   "sample_fmt":"fltp",
   "sample_rate":"16000",
   "channels":1,
   "channel_layout":"mono",
   "bits_per_sample":0,
   "id":"0x101",
   "r_frame_rate":"0/0",
   "avg_frame_rate":"0/0",
   "time_base":"1/90000",
   "start_pts":27817200,
   "start_time":"309.080000",
   "duration_ts":19825920,
   "duration":"220.288000",
   "bit_rate":"95875",
   "disposition":{
    "default":0,
    "dub":0,
    "original":0,
    "comment":0,
    "lyrics":0,
    "karaoke":0,
    "forced":0,
    "hearing_impaired":0,
    "visual_impaired":0,
    "clean_effects":0,
    "attached_pic":0,
    "timed_thumbnails":0
   }
  }
 ],
 "format":{
  "filename":"chaturbate-harrietbaker-1570719379.mp4",
  "nb_streams":3,
  "nb_programs":1,
  "format_name":"mpegts",
  "format_long_name":"MPEG-TS (MPEG-2 Transport Stream)",
  "start_time":"309.024000",
  "duration":"220.473333",
  "size":"29902528",
  "bit_rate":"1085030",
  "probe_score":50
 }
}

Related videos

chaturbate harrietbaker 2019-10-10 15:20:56
4m:7s
27.45MB
1280x720
30FPS
chaturbate harrietbaker 2019-10-10 16:08:36
29m:25s
181.04MB
1280x720
30FPS
chaturbate harrietbaker 2019-10-10 16:40:21
10m:20s
59.88MB
1280x720
30FPS
chaturbate harrietbaker 2019-10-10 17:08:54
10m:59s
75.30MB
1280x720
30FPS
chaturbate harrietbaker 2019-10-10 17:52:41
3m:16s
20.79MB
1280x720
30FPS
chaturbate harrietbaker 2019-10-10 18:05:27
5m:11s
30.58MB
1280x720
30FPS
chaturbate harrietbaker 2019-10-10 14:27:11
9m:57s
67.14MB
1280x720
30FPS
chaturbate harrietbaker 2019-10-10 12:58:16
26m:44s
162.59MB
1280x720
30FPS
chaturbate harrietbaker 2019-10-10 12:42:51
9m:25s
58.73MB
1280x720
30FPS
chaturbate harrietbaker 2019-10-10 12:21:59
7m:26s
53.26MB
1280x720
30FPS
chaturbate harrietbaker 2019-10-09 18:39:18
12m:34s
55.57MB
1280x720
30FPS
chaturbate harrietbaker 2019-10-09 17:27:39
42m:10s
201.11MB
1280x720
30FPS