chaturbate holly_saray 2019-09-15 16:53:34

Click the screencaps for zoom.


Public webcam show of holly_saray chaturbate from 2019-09-15 16:53:34

Untouched and best quality possible.

Size: 39.65MB

Duration: 13m:7s

Dimension: 640x480

Framerate: 30FPS


User account required



Create an User account

Are you the model?


{
 "streams":[
  {
   "index":0,
   "codec_name":"timed_id3",
   "codec_long_name":"timed ID3 metadata",
   "codec_type":"data",
   "codec_tag_string":"ID3 ",
   "codec_tag":"0x20334449",
   "id":"0x102",
   "r_frame_rate":"0/0",
   "avg_frame_rate":"0/0",
   "time_base":"1/90000",
   "start_pts":7156080,
   "start_time":"79.512000",
   "duration_ts":70872600,
   "duration":"787.473333",
   "disposition":{
    "default":0,
    "dub":0,
    "original":0,
    "comment":0,
    "lyrics":0,
    "karaoke":0,
    "forced":0,
    "hearing_impaired":0,
    "visual_impaired":0,
    "clean_effects":0,
    "attached_pic":0,
    "timed_thumbnails":0
   }
  },
  {
   "index":1,
   "codec_name":"h264",
   "codec_long_name":"H.264 / AVC / MPEG-4 AVC / MPEG-4 part 10",
   "profile":"Main",
   "codec_type":"video",
   "codec_time_base":"1/60",
   "codec_tag_string":"[
    27
   ][
    0
   ][
    0
   ][
    0
   ]",
   "codec_tag":"0x001b",
   "width":640,
   "height":480,
   "coded_width":640,
   "coded_height":480,
   "has_b_frames":0,
   "sample_aspect_ratio":"1:1",
   "display_aspect_ratio":"4:3",
   "pix_fmt":"yuv420p",
   "level":30,
   "chroma_location":"left",
   "field_order":"progressive",
   "refs":1,
   "is_avc":"false",
   "nal_length_size":"0",
   "id":"0x100",
   "r_frame_rate":"30/1",
   "avg_frame_rate":"30/1",
   "time_base":"1/90000",
   "start_pts":7156350,
   "start_time":"79.515000",
   "duration_ts":70872330,
   "duration":"787.470333",
   "bits_per_raw_sample":"8",
   "disposition":{
    "default":0,
    "dub":0,
    "original":0,
    "comment":0,
    "lyrics":0,
    "karaoke":0,
    "forced":0,
    "hearing_impaired":0,
    "visual_impaired":0,
    "clean_effects":0,
    "attached_pic":0,
    "timed_thumbnails":0
   }
  },
  {
   "index":2,
   "codec_name":"aac",
   "codec_long_name":"AAC (Advanced Audio Coding)",
   "profile":"LC",
   "codec_type":"audio",
   "codec_time_base":"1/16000",
   "codec_tag_string":"[
    15
   ][
    0
   ][
    0
   ][
    0
   ]",
   "codec_tag":"0x000f",
   "sample_fmt":"fltp",
   "sample_rate":"16000",
   "channels":1,
   "channel_layout":"mono",
   "bits_per_sample":0,
   "id":"0x101",
   "r_frame_rate":"0/0",
   "avg_frame_rate":"0/0",
   "time_base":"1/90000",
   "start_pts":7156080,
   "start_time":"79.512000",
   "duration_ts":70854480,
   "duration":"787.272000",
   "bit_rate":"42875",
   "disposition":{
    "default":0,
    "dub":0,
    "original":0,
    "comment":0,
    "lyrics":0,
    "karaoke":0,
    "forced":0,
    "hearing_impaired":0,
    "visual_impaired":0,
    "clean_effects":0,
    "attached_pic":0,
    "timed_thumbnails":0
   }
  }
 ],
 "format":{
  "filename":"chaturbate-holly_saray-1568566414.mp4",
  "nb_streams":3,
  "nb_programs":1,
  "format_name":"mpegts",
  "format_long_name":"MPEG-TS (MPEG-2 Transport Stream)",
  "start_time":"79.512000",
  "duration":"787.473333",
  "size":"41573756",
  "bit_rate":"422350",
  "probe_score":50
 }
}

Related videos

chaturbate holly_saray 2019-09-15 17:07:44
1h:42m:12s
269.25MB
640x480
30FPS
chaturbate holly_saray 2019-09-15 18:52:54
18m:1s
48.46MB
640x480
30FPS
chaturbate holly_saray 2019-09-15 19:13:19
11m:36s
39.48MB
640x480
30FPS
chaturbate holly_saray 2019-09-15 19:25:37
34m:16s
109.53MB
640x480
30FPS
chaturbate holly_saray 2019-09-15 20:00:19
23m:57s
84.14MB
640x480
30FPS
chaturbate holly_saray 2019-09-15 20:27:13
12m:17s
41.62MB
640x480
30FPS
chaturbate holly_saray 2019-09-15 16:37:57
14m:8s
42.18MB
640x480
30FPS
chaturbate holly_saray 2019-09-15 16:14:05
19m:40s
71.31MB
640x480
30FPS
chaturbate holly_saray 2019-09-15 16:00:37
12m:22s
30.49MB
640x480
30FPS
chaturbate holly_saray 2019-09-15 13:40:16
35m:23s
114.70MB
640x480
30FPS
chaturbate holly_saray 2019-09-14 23:48:38
13m:35s
31.47MB
640x480
30FPS
chaturbate holly_saray 2019-09-14 23:26:56
20m:15s
65.52MB
640x480
30FPS