chaturbate holly_saray 2019-09-15 20:40:22

Click the screencaps for zoom.


Public webcam show of holly_saray chaturbate from 2019-09-15 20:40:22

Untouched and best quality possible.

Size: 62.72MB

Duration: 17m:23s

Dimension: 640x480

Framerate: 30FPS


User account required



Create an User account

Are you the model?


{
 "streams":[
  {
   "index":0,
   "codec_name":"timed_id3",
   "codec_long_name":"timed ID3 metadata",
   "codec_type":"data",
   "codec_tag_string":"ID3 ",
   "codec_tag":"0x20334449",
   "id":"0x102",
   "r_frame_rate":"0/0",
   "avg_frame_rate":"0/0",
   "time_base":"1/90000",
   "start_pts":2830500,
   "start_time":"31.450000",
   "duration_ts":93966060,
   "duration":"1044.067333",
   "disposition":{
    "default":0,
    "dub":0,
    "original":0,
    "comment":0,
    "lyrics":0,
    "karaoke":0,
    "forced":0,
    "hearing_impaired":0,
    "visual_impaired":0,
    "clean_effects":0,
    "attached_pic":0,
    "timed_thumbnails":0
   }
  },
  {
   "index":1,
   "codec_name":"h264",
   "codec_long_name":"H.264 / AVC / MPEG-4 AVC / MPEG-4 part 10",
   "profile":"Main",
   "codec_type":"video",
   "codec_time_base":"1/60",
   "codec_tag_string":"[
    27
   ][
    0
   ][
    0
   ][
    0
   ]",
   "codec_tag":"0x001b",
   "width":640,
   "height":480,
   "coded_width":640,
   "coded_height":480,
   "has_b_frames":0,
   "sample_aspect_ratio":"1:1",
   "display_aspect_ratio":"4:3",
   "pix_fmt":"yuv420p",
   "level":30,
   "chroma_location":"left",
   "field_order":"progressive",
   "refs":1,
   "is_avc":"false",
   "nal_length_size":"0",
   "id":"0x100",
   "r_frame_rate":"30/1",
   "avg_frame_rate":"30/1",
   "time_base":"1/90000",
   "start_pts":2836890,
   "start_time":"31.521000",
   "duration_ts":93959670,
   "duration":"1043.996333",
   "bits_per_raw_sample":"8",
   "disposition":{
    "default":0,
    "dub":0,
    "original":0,
    "comment":0,
    "lyrics":0,
    "karaoke":0,
    "forced":0,
    "hearing_impaired":0,
    "visual_impaired":0,
    "clean_effects":0,
    "attached_pic":0,
    "timed_thumbnails":0
   }
  },
  {
   "index":2,
   "codec_name":"aac",
   "codec_long_name":"AAC (Advanced Audio Coding)",
   "profile":"LC",
   "codec_type":"audio",
   "codec_time_base":"1/16000",
   "codec_tag_string":"[
    15
   ][
    0
   ][
    0
   ][
    0
   ]",
   "codec_tag":"0x000f",
   "sample_fmt":"fltp",
   "sample_rate":"16000",
   "channels":1,
   "channel_layout":"mono",
   "bits_per_sample":0,
   "id":"0x101",
   "r_frame_rate":"0/0",
   "avg_frame_rate":"0/0",
   "time_base":"1/90000",
   "start_pts":2830500,
   "start_time":"31.450000",
   "duration_ts":93957660,
   "duration":"1043.974000",
   "bit_rate":"44375",
   "disposition":{
    "default":0,
    "dub":0,
    "original":0,
    "comment":0,
    "lyrics":0,
    "karaoke":0,
    "forced":0,
    "hearing_impaired":0,
    "visual_impaired":0,
    "clean_effects":0,
    "attached_pic":0,
    "timed_thumbnails":0
   }
  }
 ],
 "format":{
  "filename":"chaturbate-holly_saray-1568580022.mp4",
  "nb_streams":3,
  "nb_programs":1,
  "format_name":"mpegts",
  "format_long_name":"MPEG-TS (MPEG-2 Transport Stream)",
  "start_time":"31.450000",
  "duration":"1044.067333",
  "size":"65765032",
  "bit_rate":"503914",
  "probe_score":50
 }
}

Related videos

chaturbate holly_saray 2019-09-15 21:58:02
15m:35s
45.10MB
640x480
30FPS
chaturbate holly_saray 2019-09-15 22:14:11
6m:33s
18.78MB
640x480
30FPS
chaturbate holly_saray 2019-09-17 11:45:32
10m:22s
35.19MB
640x480
30FPS
chaturbate holly_saray 2019-09-17 11:57:18
11m:22s
37.36MB
640x480
30FPS
chaturbate holly_saray 2019-09-17 12:10:23
12m:43s
48.75MB
640x480
30FPS
chaturbate holly_saray 2019-09-17 12:31:46
9m:37s
35.17MB
640x480
30FPS
chaturbate holly_saray 2019-09-15 20:27:13
12m:17s
41.62MB
640x480
30FPS
chaturbate holly_saray 2019-09-15 20:00:19
23m:57s
84.14MB
640x480
30FPS
chaturbate holly_saray 2019-09-15 19:25:37
34m:16s
109.53MB
640x480
30FPS
chaturbate holly_saray 2019-09-15 19:13:19
11m:36s
39.48MB
640x480
30FPS
chaturbate holly_saray 2019-09-15 18:52:54
18m:1s
48.46MB
640x480
30FPS
chaturbate holly_saray 2019-09-15 17:07:44
1h:42m:12s
269.25MB
640x480
30FPS