chaturbate imaslave4ux 2016-06-26 20:04:42

Click the screencaps for zoom.


Public webcam show of imaslave4ux chaturbate from 2016-06-26 20:04:42

Untouched and best quality possible.

Size: 58.13MB

Duration: 9m:20s

Dimension: 640x480

Framerate: 30FPS


User account required



Create an User account

Are you the model?


{
 "streams":[
  {
   "index":0,
   "codec_name":"timed_id3",
   "codec_long_name":"timed ID3 metadata",
   "codec_type":"data",
   "codec_tag_string":"ID3 ",
   "codec_tag":"0x20334449",
   "id":"0x102",
   "r_frame_rate":"0/0",
   "avg_frame_rate":"0/0",
   "time_base":"1/90000",
   "start_pts":257049090,
   "start_time":"2856.101000",
   "duration_ts":50454480,
   "duration":"560.605333",
   "disposition":{
    "default":0,
    "dub":0,
    "original":0,
    "comment":0,
    "lyrics":0,
    "karaoke":0,
    "forced":0,
    "hearing_impaired":0,
    "visual_impaired":0,
    "clean_effects":0,
    "attached_pic":0,
    "timed_thumbnails":0
   }
  },
  {
   "index":1,
   "codec_name":"h264",
   "codec_long_name":"H.264 / AVC / MPEG-4 AVC / MPEG-4 part 10",
   "profile":"Main",
   "codec_type":"video",
   "codec_time_base":"1/60",
   "codec_tag_string":"[
    27
   ][
    0
   ][
    0
   ][
    0
   ]",
   "codec_tag":"0x001b",
   "width":640,
   "height":480,
   "coded_width":640,
   "coded_height":480,
   "has_b_frames":0,
   "sample_aspect_ratio":"1:1",
   "display_aspect_ratio":"4:3",
   "pix_fmt":"yuv420p",
   "level":30,
   "color_range":"tv",
   "chroma_location":"left",
   "field_order":"progressive",
   "refs":1,
   "is_avc":"false",
   "nal_length_size":"0",
   "id":"0x100",
   "r_frame_rate":"30/1",
   "avg_frame_rate":"30/1",
   "time_base":"1/90000",
   "start_pts":257053590,
   "start_time":"2856.151000",
   "duration_ts":50449980,
   "duration":"560.555333",
   "bits_per_raw_sample":"8",
   "disposition":{
    "default":0,
    "dub":0,
    "original":0,
    "comment":0,
    "lyrics":0,
    "karaoke":0,
    "forced":0,
    "hearing_impaired":0,
    "visual_impaired":0,
    "clean_effects":0,
    "attached_pic":0,
    "timed_thumbnails":0
   }
  },
  {
   "index":2,
   "codec_name":"aac",
   "codec_long_name":"AAC (Advanced Audio Coding)",
   "profile":"LC",
   "codec_type":"audio",
   "codec_time_base":"1/16000",
   "codec_tag_string":"[
    15
   ][
    0
   ][
    0
   ][
    0
   ]",
   "codec_tag":"0x000f",
   "sample_fmt":"fltp",
   "sample_rate":"16000",
   "channels":1,
   "channel_layout":"mono",
   "bits_per_sample":0,
   "id":"0x101",
   "r_frame_rate":"0/0",
   "avg_frame_rate":"0/0",
   "time_base":"1/90000",
   "start_pts":257049090,
   "start_time":"2856.101000",
   "duration_ts":50420970,
   "duration":"560.233000",
   "bit_rate":"48250",
   "disposition":{
    "default":0,
    "dub":0,
    "original":0,
    "comment":0,
    "lyrics":0,
    "karaoke":0,
    "forced":0,
    "hearing_impaired":0,
    "visual_impaired":0,
    "clean_effects":0,
    "attached_pic":0,
    "timed_thumbnails":0
   }
  }
 ],
 "format":{
  "filename":"chaturbate-imaslave4ux-1466971482.mp4",
  "nb_streams":3,
  "nb_programs":1,
  "format_name":"mpegts",
  "format_long_name":"MPEG-TS (MPEG-2 Transport Stream)",
  "start_time":"2856.101000",
  "duration":"560.605333",
  "size":"60957308",
  "bit_rate":"869878",
  "probe_score":50
 }
}

Related videos

chaturbate imaslave4ux 2016-06-26 18:58:38
7m:13s
15.32MB
320x240
17FPS
chaturbate imaslave4ux 2016-06-26 18:39:27
5m:4s
10.09MB
320x240
17FPS