chaturbate katylove04 2019-10-10 14:56:19

Click the screencaps for zoom.


Public webcam show of katylove04 chaturbate from 2019-10-10 14:56:19

Untouched and best quality possible.

Size: 34.34MB

Duration: 4m:15s

Dimension: 768x576

Framerate: 30FPS



User account required



Create an User account

Are you the model?


{
 "streams":[
  {
   "index":0,
   "codec_name":"timed_id3",
   "codec_long_name":"timed ID3 metadata",
   "codec_type":"data",
   "codec_tag_string":"ID3 ",
   "codec_tag":"0x20334449",
   "id":"0x102",
   "r_frame_rate":"0/0",
   "avg_frame_rate":"0/0",
   "time_base":"1/90000",
   "start_pts":406342620,
   "start_time":"4514.918000",
   "duration_ts":22959300,
   "duration":"255.103333",
   "disposition":{
    "default":0,
    "dub":0,
    "original":0,
    "comment":0,
    "lyrics":0,
    "karaoke":0,
    "forced":0,
    "hearing_impaired":0,
    "visual_impaired":0,
    "clean_effects":0,
    "attached_pic":0,
    "timed_thumbnails":0
   }
  },
  {
   "index":1,
   "codec_name":"h264",
   "codec_long_name":"H.264 / AVC / MPEG-4 AVC / MPEG-4 part 10",
   "profile":"Main",
   "codec_type":"video",
   "codec_time_base":"1/60",
   "codec_tag_string":"[
    27
   ][
    0
   ][
    0
   ][
    0
   ]",
   "codec_tag":"0x001b",
   "width":768,
   "height":576,
   "coded_width":768,
   "coded_height":576,
   "has_b_frames":0,
   "sample_aspect_ratio":"1:1",
   "display_aspect_ratio":"4:3",
   "pix_fmt":"yuv420p",
   "level":31,
   "chroma_location":"left",
   "field_order":"progressive",
   "refs":1,
   "is_avc":"false",
   "nal_length_size":"0",
   "id":"0x100",
   "r_frame_rate":"30/1",
   "avg_frame_rate":"30/1",
   "time_base":"1/90000",
   "start_pts":406350630,
   "start_time":"4515.007000",
   "duration_ts":22951290,
   "duration":"255.014333",
   "bits_per_raw_sample":"8",
   "disposition":{
    "default":0,
    "dub":0,
    "original":0,
    "comment":0,
    "lyrics":0,
    "karaoke":0,
    "forced":0,
    "hearing_impaired":0,
    "visual_impaired":0,
    "clean_effects":0,
    "attached_pic":0,
    "timed_thumbnails":0
   }
  },
  {
   "index":2,
   "codec_name":"aac",
   "codec_long_name":"AAC (Advanced Audio Coding)",
   "profile":"LC",
   "codec_type":"audio",
   "codec_time_base":"1/16000",
   "codec_tag_string":"[
    15
   ][
    0
   ][
    0
   ][
    0
   ]",
   "codec_tag":"0x000f",
   "sample_fmt":"fltp",
   "sample_rate":"16000",
   "channels":1,
   "channel_layout":"mono",
   "bits_per_sample":0,
   "id":"0x101",
   "r_frame_rate":"0/0",
   "avg_frame_rate":"0/0",
   "time_base":"1/90000",
   "start_pts":406342620,
   "start_time":"4514.918000",
   "duration_ts":22936320,
   "duration":"254.848000",
   "bit_rate":"44125",
   "disposition":{
    "default":0,
    "dub":0,
    "original":0,
    "comment":0,
    "lyrics":0,
    "karaoke":0,
    "forced":0,
    "hearing_impaired":0,
    "visual_impaired":0,
    "clean_effects":0,
    "attached_pic":0,
    "timed_thumbnails":0
   }
  }
 ],
 "format":{
  "filename":"chaturbate-katylove04-1570719379.mp4",
  "nb_streams":3,
  "nb_programs":1,
  "format_name":"mpegts",
  "format_long_name":"MPEG-TS (MPEG-2 Transport Stream)",
  "start_time":"4514.918000",
  "duration":"255.103333",
  "size":"36007828",
  "bit_rate":"1129199",
  "probe_score":50
 }
}

Related videos

chaturbate katylove04 2019-10-10 15:05:29
4m:47s
36.58MB
768x576
30FPS
chaturbate katylove04 2019-10-10 15:20:20
39m:48s
312.17MB
768x576
30FPS
chaturbate katylove04 2019-10-10 16:35:22
4m:17s
34.17MB
768x576
30FPS
chaturbate katylove04 2019-10-10 16:40:46
43m:36s
340.07MB
768x576
30FPS
chaturbate katylove04 2019-10-10 17:51:25
4m:58s
39.77MB
768x576
30FPS
chaturbate katylove04 2019-10-10 18:24:26
39m:5s
308.89MB
768x576
30FPS
chaturbate katylove04 2019-10-10 14:47:35
5m:24s
42.82MB
768x576
30FPS
chaturbate katylove04 2019-10-10 13:43:39
59m:0s
451.26MB
768x576
30FPS
chaturbate katylove04 2019-10-09 17:59:23
27m:43s
199.66MB
768x576
30FPS
chaturbate katylove04 2019-10-09 16:51:14
1h:1m:34s
448.85MB
768x576
30FPS
chaturbate katylove04 2019-10-09 15:43:35
1h:5m:31s
472.45MB
768x576
30FPS
chaturbate katylove04 2019-10-09 15:05:21
34m:31s
155.87MB
640x480
30FPS