chaturbate lanagrey1 2019-10-10 14:58:54

Click the screencaps for zoom.


Public webcam show of lanagrey1 chaturbate from 2019-10-10 14:58:54

Untouched and best quality possible.

Size: 69.96MB

Duration: 3m:12s

Dimension: 1280x720

Framerate: 30FPS



User account required



Create an User account

Are you the model?


You might need VLC to play the video (every advanced media player will do).
VLC for Android

VLC for Windows/Mac OS X/Linux


{
 "streams":[
  {
   "index":0,
   "codec_name":"timed_id3",
   "codec_long_name":"timed ID3 metadata",
   "codec_type":"data",
   "codec_tag_string":"ID3 ",
   "codec_tag":"0x20334449",
   "id":"0x102",
   "r_frame_rate":"0/0",
   "avg_frame_rate":"0/0",
   "time_base":"1/90000",
   "start_pts":27812655,
   "start_time":"309.029500",
   "duration_ts":17280165,
   "duration":"192.001833",
   "disposition":{
    "default":0,
    "dub":0,
    "original":0,
    "comment":0,
    "lyrics":0,
    "karaoke":0,
    "forced":0,
    "hearing_impaired":0,
    "visual_impaired":0,
    "clean_effects":0,
    "attached_pic":0,
    "timed_thumbnails":0
   }
  },
  {
   "index":1,
   "codec_name":"h264",
   "codec_long_name":"H.264 / AVC / MPEG-4 AVC / MPEG-4 part 10",
   "profile":"Main",
   "codec_type":"video",
   "codec_time_base":"1/60",
   "codec_tag_string":"[
    27
   ][
    0
   ][
    0
   ][
    0
   ]",
   "codec_tag":"0x001b",
   "width":1280,
   "height":720,
   "coded_width":1280,
   "coded_height":720,
   "has_b_frames":0,
   "sample_aspect_ratio":"1:1",
   "display_aspect_ratio":"16:9",
   "pix_fmt":"yuv420p",
   "level":31,
   "chroma_location":"left",
   "field_order":"progressive",
   "refs":1,
   "is_avc":"false",
   "nal_length_size":"0",
   "id":"0x100",
   "r_frame_rate":"30/1",
   "avg_frame_rate":"30/1",
   "time_base":"1/90000",
   "start_pts":27812880,
   "start_time":"309.032000",
   "duration_ts":17279940,
   "duration":"191.999333",
   "bits_per_raw_sample":"8",
   "disposition":{
    "default":0,
    "dub":0,
    "original":0,
    "comment":0,
    "lyrics":0,
    "karaoke":0,
    "forced":0,
    "hearing_impaired":0,
    "visual_impaired":0,
    "clean_effects":0,
    "attached_pic":0,
    "timed_thumbnails":0
   }
  },
  {
   "index":2,
   "codec_name":"aac",
   "codec_long_name":"AAC (Advanced Audio Coding)",
   "profile":"LC",
   "codec_type":"audio",
   "codec_time_base":"1/44100",
   "codec_tag_string":"[
    15
   ][
    0
   ][
    0
   ][
    0
   ]",
   "codec_tag":"0x000f",
   "sample_fmt":"fltp",
   "sample_rate":"44100",
   "channels":2,
   "channel_layout":"stereo",
   "bits_per_sample":0,
   "id":"0x101",
   "r_frame_rate":"0/0",
   "avg_frame_rate":"0/0",
   "time_base":"1/90000",
   "start_pts":27812655,
   "start_time":"309.029500",
   "duration_ts":17274252,
   "duration":"191.936133",
   "bit_rate":"98191",
   "disposition":{
    "default":0,
    "dub":0,
    "original":0,
    "comment":0,
    "lyrics":0,
    "karaoke":0,
    "forced":0,
    "hearing_impaired":0,
    "visual_impaired":0,
    "clean_effects":0,
    "attached_pic":0,
    "timed_thumbnails":0
   }
  }
 ],
 "format":{
  "filename":"chaturbate-lanagrey1-1570719534.mp4",
  "nb_streams":3,
  "nb_programs":1,
  "format_name":"mpegts",
  "format_long_name":"MPEG-TS (MPEG-2 Transport Stream)",
  "start_time":"309.029500",
  "duration":"192.001833",
  "size":"73354028",
  "bit_rate":"3056388",
  "probe_score":50
 }
}

Related videos

chaturbate lanagrey1 2019-10-10 15:15:50
2h:4m:30s
2.57GB
1280x720
30FPS
chaturbate lanagrey1 2019-10-10 17:21:26
30m:40s
632.24MB
1280x720
30FPS
chaturbate lanagrey1 2019-10-11 12:38:04
50m:15s
1.04GB
1280x720
30FPS
chaturbate lanagrey1 2019-10-11 13:48:52
5m:21s
106.60MB
1280x720
30FPS
chaturbate lanagrey1 2019-10-11 14:02:14
8m:43s
177.10MB
1280x720
30FPS
chaturbate lanagrey1 2019-10-11 14:11:31
1h:17m:4s
1.51GB
1280x720
30FPS
chaturbate lanagrey1 2019-10-10 13:51:46
48m:10s
0.97GB
1280x720
30FPS
chaturbate lanagrey1 2019-10-10 12:13:19
1h:0m:6s
1.21GB
1280x720
30FPS
chaturbate lanagrey1 2019-10-08 16:16:59
11m:12s
224.83MB
1280x720
30FPS
chaturbate lanagrey1 2019-10-08 14:43:29
1h:0m:13s
1.19GB
1280x720
30FPS
chaturbate lanagrey1 2019-10-08 13:12:50
1h:26m:19s
1.75GB
1280x720
30FPS
chaturbate lanagrey1 2019-10-08 12:31:54
26m:43s
551.45MB
1280x720
30FPS