chaturbate lesli_stone 2019-10-10 14:58:13

Click the screencaps for zoom.


Public webcam show of lesli_stone chaturbate from 2019-10-10 14:58:13

Untouched and best quality possible.

Size: 23.19MB

Duration: 5m:21s

Dimension: 854x480

Framerate: 30FPS



User account required



Create an User account

Are you the model?


{
 "streams":[
  {
   "index":0,
   "codec_name":"timed_id3",
   "codec_long_name":"timed ID3 metadata",
   "codec_type":"data",
   "codec_tag_string":"ID3 ",
   "codec_tag":"0x20334449",
   "id":"0x102",
   "r_frame_rate":"0/0",
   "avg_frame_rate":"0/0",
   "time_base":"1/90000",
   "start_pts":42525090,
   "start_time":"472.501000",
   "duration_ts":28892190,
   "duration":"321.024333",
   "disposition":{
    "default":0,
    "dub":0,
    "original":0,
    "comment":0,
    "lyrics":0,
    "karaoke":0,
    "forced":0,
    "hearing_impaired":0,
    "visual_impaired":0,
    "clean_effects":0,
    "attached_pic":0,
    "timed_thumbnails":0
   }
  },
  {
   "index":1,
   "codec_name":"h264",
   "codec_long_name":"H.264 / AVC / MPEG-4 AVC / MPEG-4 part 10",
   "profile":"Main",
   "codec_type":"video",
   "codec_time_base":"1/60",
   "codec_tag_string":"[
    27
   ][
    0
   ][
    0
   ][
    0
   ]",
   "codec_tag":"0x001b",
   "width":854,
   "height":480,
   "coded_width":854,
   "coded_height":480,
   "has_b_frames":0,
   "sample_aspect_ratio":"1:1",
   "display_aspect_ratio":"427:240",
   "pix_fmt":"yuv420p",
   "level":31,
   "chroma_location":"left",
   "field_order":"progressive",
   "refs":1,
   "is_avc":"false",
   "nal_length_size":"0",
   "id":"0x100",
   "r_frame_rate":"30/1",
   "avg_frame_rate":"30/1",
   "time_base":"1/90000",
   "start_pts":42525090,
   "start_time":"472.501000",
   "duration_ts":28892190,
   "duration":"321.024333",
   "bits_per_raw_sample":"8",
   "disposition":{
    "default":0,
    "dub":0,
    "original":0,
    "comment":0,
    "lyrics":0,
    "karaoke":0,
    "forced":0,
    "hearing_impaired":0,
    "visual_impaired":0,
    "clean_effects":0,
    "attached_pic":0,
    "timed_thumbnails":0
   }
  },
  {
   "index":2,
   "codec_name":"aac",
   "codec_long_name":"AAC (Advanced Audio Coding)",
   "profile":"LC",
   "codec_type":"audio",
   "codec_time_base":"1/16000",
   "codec_tag_string":"[
    15
   ][
    0
   ][
    0
   ][
    0
   ]",
   "codec_tag":"0x000f",
   "sample_fmt":"fltp",
   "sample_rate":"16000",
   "channels":1,
   "channel_layout":"mono",
   "bits_per_sample":0,
   "id":"0x101",
   "r_frame_rate":"0/0",
   "avg_frame_rate":"0/0",
   "time_base":"1/90000",
   "start_pts":42525090,
   "start_time":"472.501000",
   "duration_ts":28877040,
   "duration":"320.856000",
   "bit_rate":"46500",
   "disposition":{
    "default":0,
    "dub":0,
    "original":0,
    "comment":0,
    "lyrics":0,
    "karaoke":0,
    "forced":0,
    "hearing_impaired":0,
    "visual_impaired":0,
    "clean_effects":0,
    "attached_pic":0,
    "timed_thumbnails":0
   }
  }
 ],
 "format":{
  "filename":"chaturbate-lesli_stone-1570719493.mp4",
  "nb_streams":3,
  "nb_programs":1,
  "format_name":"mpegts",
  "format_long_name":"MPEG-TS (MPEG-2 Transport Stream)",
  "start_time":"472.501000",
  "duration":"321.024333",
  "size":"24321184",
  "bit_rate":"606089",
  "probe_score":50
 }
}

Related videos

chaturbate lesli_stone 2019-10-10 15:04:58
40m:19s
180.65MB
854x480
30FPS
chaturbate lesli_stone 2019-10-11 09:53:03
18m:49s
81.88MB
854x480
30FPS
chaturbate lesli_stone 2019-10-11 10:28:03
50m:20s
228.20MB
854x480
30FPS
chaturbate lesli_stone 2019-10-11 11:48:33
12m:12s
54.37MB
854x480
30FPS
chaturbate lesli_stone 2019-10-11 12:06:24
5m:17s
24.36MB
854x480
30FPS
chaturbate lesli_stone 2019-10-15 09:31:18
58m:14s
246.41MB
854x480
29FPS
chaturbate lesli_stone 2019-10-10 11:18:14
23m:22s
102.19MB
854x480
30FPS
chaturbate lesli_stone 2019-10-10 10:47:16
16m:25s
72.49MB
854x480
30FPS
chaturbate lesli_stone 2019-10-10 09:29:20
1h:15m:41s
331.76MB
854x480
30FPS
chaturbate lesli_stone 2019-10-08 11:38:37
24m:22s
112.20MB
854x480
30FPS
chaturbate lesli_stone 2019-10-08 10:38:18
59m:2s
260.65MB
854x480
30FPS
chaturbate lesli_stone 2019-10-08 10:25:44
9m:7s
41.34MB
854x480
30FPS