chaturbate lilada27 2019-10-10 14:58:56

Click the screencaps for zoom.


Public webcam show of lilada27 chaturbate from 2019-10-10 14:58:56

Untouched and best quality possible.

Size: 47.06MB

Duration: 4m:56s

Dimension: 1280x720

Framerate: 30FPS



User account required



Create an User account

Are you the model?


{
 "streams":[
  {
   "index":0,
   "codec_name":"timed_id3",
   "codec_long_name":"timed ID3 metadata",
   "codec_type":"data",
   "codec_tag_string":"ID3 ",
   "codec_tag":"0x20334449",
   "id":"0x102",
   "r_frame_rate":"0/0",
   "avg_frame_rate":"0/0",
   "time_base":"1/90000",
   "start_pts":4860360,
   "start_time":"54.004000",
   "duration_ts":26728950,
   "duration":"296.988333",
   "disposition":{
    "default":0,
    "dub":0,
    "original":0,
    "comment":0,
    "lyrics":0,
    "karaoke":0,
    "forced":0,
    "hearing_impaired":0,
    "visual_impaired":0,
    "clean_effects":0,
    "attached_pic":0,
    "timed_thumbnails":0
   }
  },
  {
   "index":1,
   "codec_name":"h264",
   "codec_long_name":"H.264 / AVC / MPEG-4 AVC / MPEG-4 part 10",
   "profile":"Main",
   "codec_type":"video",
   "codec_time_base":"1/60",
   "codec_tag_string":"[
    27
   ][
    0
   ][
    0
   ][
    0
   ]",
   "codec_tag":"0x001b",
   "width":1280,
   "height":720,
   "coded_width":1280,
   "coded_height":720,
   "has_b_frames":0,
   "sample_aspect_ratio":"1:1",
   "display_aspect_ratio":"16:9",
   "pix_fmt":"yuv420p",
   "level":31,
   "chroma_location":"left",
   "field_order":"progressive",
   "refs":1,
   "is_avc":"false",
   "nal_length_size":"0",
   "id":"0x100",
   "r_frame_rate":"30/1",
   "avg_frame_rate":"30/1",
   "time_base":"1/90000",
   "start_pts":4860630,
   "start_time":"54.007000",
   "duration_ts":26728680,
   "duration":"296.985333",
   "bits_per_raw_sample":"8",
   "disposition":{
    "default":0,
    "dub":0,
    "original":0,
    "comment":0,
    "lyrics":0,
    "karaoke":0,
    "forced":0,
    "hearing_impaired":0,
    "visual_impaired":0,
    "clean_effects":0,
    "attached_pic":0,
    "timed_thumbnails":0
   }
  },
  {
   "index":2,
   "codec_name":"aac",
   "codec_long_name":"AAC (Advanced Audio Coding)",
   "profile":"LC",
   "codec_type":"audio",
   "codec_time_base":"1/16000",
   "codec_tag_string":"[
    15
   ][
    0
   ][
    0
   ][
    0
   ]",
   "codec_tag":"0x000f",
   "sample_fmt":"fltp",
   "sample_rate":"16000",
   "channels":1,
   "channel_layout":"mono",
   "bits_per_sample":0,
   "id":"0x101",
   "r_frame_rate":"0/0",
   "avg_frame_rate":"0/0",
   "time_base":"1/90000",
   "start_pts":4860360,
   "start_time":"54.004000",
   "duration_ts":26720640,
   "duration":"296.896000",
   "bit_rate":"95875",
   "disposition":{
    "default":0,
    "dub":0,
    "original":0,
    "comment":0,
    "lyrics":0,
    "karaoke":0,
    "forced":0,
    "hearing_impaired":0,
    "visual_impaired":0,
    "clean_effects":0,
    "attached_pic":0,
    "timed_thumbnails":0
   }
  }
 ],
 "format":{
  "filename":"chaturbate-lilada27-1570719536.mp4",
  "nb_streams":3,
  "nb_programs":1,
  "format_name":"mpegts",
  "format_long_name":"MPEG-TS (MPEG-2 Transport Stream)",
  "start_time":"54.004000",
  "duration":"296.988333",
  "size":"49340788",
  "bit_rate":"1329097",
  "probe_score":50
 }
}

Related videos

chaturbate lilada27 2019-10-10 15:42:39
18m:32s
173.28MB
1280x720
30FPS
chaturbate lilada27 2019-10-10 16:02:33
4m:48s
47.59MB
1280x720
30FPS
chaturbate lilada27 2019-10-10 16:09:55
8m:55s
43.53MB
854x480
30FPS
chaturbate lilada27 2019-10-10 16:33:05
15m:43s
77.52MB
854x480
30FPS
chaturbate lilada27 2019-10-10 17:05:16
4m:1s
16.54MB
854x480
30FPS
chaturbate lilada27 2019-10-10 17:11:41
3m:13s
22.82MB
1280x720
30FPS
chaturbate lilada27 2019-10-10 14:52:34
5m:10s
47.07MB
1280x720
30FPS
chaturbate lilada27 2019-10-10 14:42:42
7m:25s
35.44MB
854x480
30FPS
chaturbate lilada27 2019-10-10 14:14:36
17m:30s
159.08MB
1280x720
30FPS
chaturbate lilada27 2019-10-10 14:00:47
9m:22s
84.44MB
1280x720
30FPS
chaturbate lilada27 2019-10-08 15:31:56
12m:53s
117.55MB
1280x720
30FPS
chaturbate lilada27 2019-10-03 17:16:56
8m:18s
75.13MB
1280x720
30FPS