chaturbate michelhot1 2019-10-10 14:55:59

Click the screencaps for zoom.


Public webcam show of michelhot1 chaturbate from 2019-10-10 14:55:59

Untouched and best quality possible.

Size: 49.74MB

Duration: 4m:23s

Dimension: 640x480

Framerate: 30FPS



User account required



Create an User account

Are you the model?


{
 "streams":[
  {
   "index":0,
   "codec_name":"timed_id3",
   "codec_long_name":"timed ID3 metadata",
   "codec_type":"data",
   "codec_tag_string":"ID3 ",
   "codec_tag":"0x20334449",
   "id":"0x102",
   "r_frame_rate":"0/0",
   "avg_frame_rate":"0/0",
   "time_base":"1/90000",
   "start_pts":7848900,
   "start_time":"87.210000",
   "duration_ts":23764980,
   "duration":"264.055333",
   "disposition":{
    "default":0,
    "dub":0,
    "original":0,
    "comment":0,
    "lyrics":0,
    "karaoke":0,
    "forced":0,
    "hearing_impaired":0,
    "visual_impaired":0,
    "clean_effects":0,
    "attached_pic":0,
    "timed_thumbnails":0
   }
  },
  {
   "index":1,
   "codec_name":"h264",
   "codec_long_name":"H.264 / AVC / MPEG-4 AVC / MPEG-4 part 10",
   "profile":"Main",
   "codec_type":"video",
   "codec_time_base":"1/60",
   "codec_tag_string":"[
    27
   ][
    0
   ][
    0
   ][
    0
   ]",
   "codec_tag":"0x001b",
   "width":640,
   "height":480,
   "coded_width":640,
   "coded_height":480,
   "has_b_frames":0,
   "sample_aspect_ratio":"1:1",
   "display_aspect_ratio":"4:3",
   "pix_fmt":"yuv420p",
   "level":30,
   "color_range":"tv",
   "chroma_location":"left",
   "field_order":"progressive",
   "refs":1,
   "is_avc":"false",
   "nal_length_size":"0",
   "id":"0x100",
   "r_frame_rate":"30/1",
   "avg_frame_rate":"30/1",
   "time_base":"1/90000",
   "start_pts":7858440,
   "start_time":"87.316000",
   "duration_ts":23755440,
   "duration":"263.949333",
   "bits_per_raw_sample":"8",
   "disposition":{
    "default":0,
    "dub":0,
    "original":0,
    "comment":0,
    "lyrics":0,
    "karaoke":0,
    "forced":0,
    "hearing_impaired":0,
    "visual_impaired":0,
    "clean_effects":0,
    "attached_pic":0,
    "timed_thumbnails":0
   }
  },
  {
   "index":2,
   "codec_name":"aac",
   "codec_long_name":"AAC (Advanced Audio Coding)",
   "profile":"LC",
   "codec_type":"audio",
   "codec_time_base":"1/16000",
   "codec_tag_string":"[
    15
   ][
    0
   ][
    0
   ][
    0
   ]",
   "codec_tag":"0x000f",
   "sample_fmt":"fltp",
   "sample_rate":"16000",
   "channels":1,
   "channel_layout":"mono",
   "bits_per_sample":0,
   "id":"0x101",
   "r_frame_rate":"0/0",
   "avg_frame_rate":"0/0",
   "time_base":"1/90000",
   "start_pts":7848900,
   "start_time":"87.210000",
   "duration_ts":23748480,
   "duration":"263.872000",
   "bit_rate":"40125",
   "disposition":{
    "default":0,
    "dub":0,
    "original":0,
    "comment":0,
    "lyrics":0,
    "karaoke":0,
    "forced":0,
    "hearing_impaired":0,
    "visual_impaired":0,
    "clean_effects":0,
    "attached_pic":0,
    "timed_thumbnails":0
   }
  }
 ],
 "format":{
  "filename":"chaturbate-michelhot1-1570719359.mp4",
  "nb_streams":3,
  "nb_programs":1,
  "format_name":"mpegts",
  "format_long_name":"MPEG-TS (MPEG-2 Transport Stream)",
  "start_time":"87.210000",
  "duration":"264.055333",
  "size":"52159284",
  "bit_rate":"1580253",
  "probe_score":50
 }
}

Related videos

chaturbate michelhot1 2019-10-10 15:27:33
49m:0s
442.81MB
640x480
30FPS
chaturbate michelhot1 2019-10-10 16:35:38
44m:14s
366.64MB
640x480
30FPS
chaturbate michelhot1 2019-10-10 17:25:20
8m:15s
49.44MB
640x480
30FPS
chaturbate michelhot1 2019-10-10 19:25:31
4m:9s
29.66MB
640x480
30FPS
chaturbate michelhot1 2019-10-10 19:31:15
23m:34s
196.34MB
640x480
30FPS
chaturbate michelhot1 2019-10-10 20:23:14
23m:51s
245.32MB
640x480
30FPS
chaturbate michelhot1 2019-10-09 15:45:24
1h:4m:30s
319.23MB
640x480
30FPS
chaturbate michelhot1 2019-10-05 17:44:42
20m:40s
88.07MB
640x480
30FPS
chaturbate michelhot1 2019-10-05 17:12:52
31m:13s
174.04MB
640x480
30FPS
chaturbate michelhot1 2019-10-04 20:01:22
52m:33s
275.99MB
640x480
30FPS
chaturbate michelhot1 2019-10-04 18:04:55
44m:31s
315.79MB
640x480
30FPS
chaturbate michelhot1 2019-10-04 16:55:37
29m:23s
148.43MB
640x480
30FPS