chaturbate mila_coxx 2019-10-10 14:54:53

Click the screencaps for zoom.


Public webcam show of mila_coxx chaturbate from 2019-10-10 14:54:53

Untouched and best quality possible.

Size: 40.23MB

Duration: 5m:8s

Dimension: 1280x720

Framerate: 30FPS



User account required



Create an User account

Are you the model?


{
 "streams":[
  {
   "index":0,
   "codec_name":"timed_id3",
   "codec_long_name":"timed ID3 metadata",
   "codec_type":"data",
   "codec_tag_string":"ID3 ",
   "codec_tag":"0x20334449",
   "id":"0x102",
   "r_frame_rate":"0/0",
   "avg_frame_rate":"0/0",
   "time_base":"1/90000",
   "start_pts":15120360,
   "start_time":"168.004000",
   "duration_ts":27806610,
   "duration":"308.962333",
   "disposition":{
    "default":0,
    "dub":0,
    "original":0,
    "comment":0,
    "lyrics":0,
    "karaoke":0,
    "forced":0,
    "hearing_impaired":0,
    "visual_impaired":0,
    "clean_effects":0,
    "attached_pic":0,
    "timed_thumbnails":0
   }
  },
  {
   "index":1,
   "codec_name":"h264",
   "codec_long_name":"H.264 / AVC / MPEG-4 AVC / MPEG-4 part 10",
   "profile":"Main",
   "codec_type":"video",
   "codec_time_base":"1/60",
   "codec_tag_string":"[
    27
   ][
    0
   ][
    0
   ][
    0
   ]",
   "codec_tag":"0x001b",
   "width":1280,
   "height":720,
   "coded_width":1280,
   "coded_height":720,
   "has_b_frames":0,
   "sample_aspect_ratio":"1:1",
   "display_aspect_ratio":"16:9",
   "pix_fmt":"yuv420p",
   "level":31,
   "chroma_location":"left",
   "field_order":"progressive",
   "refs":1,
   "is_avc":"false",
   "nal_length_size":"0",
   "id":"0x100",
   "r_frame_rate":"30/1",
   "avg_frame_rate":"30/1",
   "time_base":"1/90000",
   "start_pts":15120360,
   "start_time":"168.004000",
   "duration_ts":27806610,
   "duration":"308.962333",
   "bits_per_raw_sample":"8",
   "disposition":{
    "default":0,
    "dub":0,
    "original":0,
    "comment":0,
    "lyrics":0,
    "karaoke":0,
    "forced":0,
    "hearing_impaired":0,
    "visual_impaired":0,
    "clean_effects":0,
    "attached_pic":0,
    "timed_thumbnails":0
   }
  },
  {
   "index":2,
   "codec_name":"aac",
   "codec_long_name":"AAC (Advanced Audio Coding)",
   "profile":"LC",
   "codec_type":"audio",
   "codec_time_base":"1/16000",
   "codec_tag_string":"[
    15
   ][
    0
   ][
    0
   ][
    0
   ]",
   "codec_tag":"0x000f",
   "sample_fmt":"fltp",
   "sample_rate":"16000",
   "channels":1,
   "channel_layout":"mono",
   "bits_per_sample":0,
   "id":"0x101",
   "r_frame_rate":"0/0",
   "avg_frame_rate":"0/0",
   "time_base":"1/90000",
   "start_pts":15122520,
   "start_time":"168.028000",
   "duration_ts":27788400,
   "duration":"308.760000",
   "bit_rate":"95875",
   "disposition":{
    "default":0,
    "dub":0,
    "original":0,
    "comment":0,
    "lyrics":0,
    "karaoke":0,
    "forced":0,
    "hearing_impaired":0,
    "visual_impaired":0,
    "clean_effects":0,
    "attached_pic":0,
    "timed_thumbnails":0
   }
  }
 ],
 "format":{
  "filename":"chaturbate-mila_coxx-1570719293.mp4",
  "nb_streams":3,
  "nb_programs":1,
  "format_name":"mpegts",
  "format_long_name":"MPEG-TS (MPEG-2 Transport Stream)",
  "start_time":"168.004000",
  "duration":"308.962333",
  "size":"42184756",
  "bit_rate":"1092295",
  "probe_score":50
 }
}

Related videos

chaturbate mila_coxx 2019-10-10 15:09:41
25m:33s
216.72MB
1280x720
30FPS
chaturbate mila_coxx 2019-10-10 15:36:20
13m:19s
104.79MB
1280x720
30FPS
chaturbate mila_coxx 2019-10-10 16:06:48
51m:11s
425.41MB
1280x720
30FPS
chaturbate mila_coxx 2019-10-10 17:13:21
1h:5m:11s
270.69MB
854x480
30FPS
chaturbate mila_coxx 2019-10-10 18:33:43
9m:16s
39.29MB
854x480
30FPS
chaturbate mila_coxx 2019-10-10 18:45:16
34m:35s
146.05MB
854x480
30FPS
chaturbate mila_coxx 2019-10-09 20:23:51
10m:16s
90.41MB
1280x720
30FPS
chaturbate mila_coxx 2019-10-09 19:44:40
22m:32s
160.48MB
1280x720
30FPS
chaturbate mila_coxx 2019-10-09 18:01:04
1h:25m:7s
647.30MB
1280x720
30FPS
chaturbate mila_coxx 2019-10-09 17:35:41
25m:0s
193.51MB
1280x720
30FPS
chaturbate mila_coxx 2019-10-09 16:49:11
23m:54s
199.41MB
1280x720
30FPS
chaturbate mila_coxx 2019-10-09 16:11:00
6m:5s
53.35MB
1280x720
30FPS