chaturbate ness_rouge 2019-04-11 15:20:05

Click the screencaps for zoom.


Public webcam show of ness_rouge chaturbate from 2019-04-11 15:20:05

Untouched and best quality possible.

Size: 1.27GB

Duration: 34m:40s

Dimension: 1920x1080

Framerate: 0FPS


User account required



Create an User account

Are you the model?


{
 "streams":[
  {
   "index":0,
   "codec_name":"timed_id3",
   "codec_long_name":"timed ID3 metadata",
   "codec_type":"data",
   "codec_tag_string":"ID3 ",
   "codec_tag":"0x20334449",
   "id":"0x102",
   "r_frame_rate":"0/0",
   "avg_frame_rate":"0/0",
   "time_base":"1/90000",
   "start_pts":25922600,
   "start_time":"288.028889",
   "duration_ts":187245310,
   "duration":"2080.503444",
   "disposition":{
    "default":0,
    "dub":0,
    "original":0,
    "comment":0,
    "lyrics":0,
    "karaoke":0,
    "forced":0,
    "hearing_impaired":0,
    "visual_impaired":0,
    "clean_effects":0,
    "attached_pic":0,
    "timed_thumbnails":0
   }
  },
  {
   "index":1,
   "codec_name":"h264",
   "codec_long_name":"H.264 / AVC / MPEG-4 AVC / MPEG-4 part 10",
   "profile":"High",
   "codec_type":"video",
   "codec_time_base":"1/60",
   "codec_tag_string":"[
    27
   ][
    0
   ][
    0
   ][
    0
   ]",
   "codec_tag":"0x001b",
   "width":1920,
   "height":1080,
   "coded_width":1920,
   "coded_height":1080,
   "has_b_frames":0,
   "sample_aspect_ratio":"1:1",
   "display_aspect_ratio":"16:9",
   "pix_fmt":"yuv420p",
   "level":40,
   "chroma_location":"left",
   "field_order":"progressive",
   "refs":1,
   "is_avc":"false",
   "nal_length_size":"0",
   "id":"0x100",
   "r_frame_rate":"30/1",
   "avg_frame_rate":"30/1",
   "time_base":"1/90000",
   "start_pts":25922970,
   "start_time":"288.033000",
   "duration_ts":187244940,
   "duration":"2080.499333",
   "bits_per_raw_sample":"8",
   "disposition":{
    "default":0,
    "dub":0,
    "original":0,
    "comment":0,
    "lyrics":0,
    "karaoke":0,
    "forced":0,
    "hearing_impaired":0,
    "visual_impaired":0,
    "clean_effects":0,
    "attached_pic":0,
    "timed_thumbnails":0
   }
  },
  {
   "index":2,
   "codec_name":"aac",
   "codec_long_name":"AAC (Advanced Audio Coding)",
   "profile":"LC",
   "codec_type":"audio",
   "codec_time_base":"1/44100",
   "codec_tag_string":"[
    15
   ][
    0
   ][
    0
   ][
    0
   ]",
   "codec_tag":"0x000f",
   "sample_fmt":"fltp",
   "sample_rate":"44100",
   "channels":2,
   "channel_layout":"stereo",
   "bits_per_sample":0,
   "id":"0x101",
   "r_frame_rate":"0/0",
   "avg_frame_rate":"0/0",
   "time_base":"1/90000",
   "start_pts":25922600,
   "start_time":"288.028889",
   "duration_ts":187237354,
   "duration":"2080.415044",
   "bit_rate":"122653",
   "disposition":{
    "default":0,
    "dub":0,
    "original":0,
    "comment":0,
    "lyrics":0,
    "karaoke":0,
    "forced":0,
    "hearing_impaired":0,
    "visual_impaired":0,
    "clean_effects":0,
    "attached_pic":0,
    "timed_thumbnails":0
   }
  }
 ],
 "format":{
  "filename":"chaturbate-ness_rouge-1554996005.mp4",
  "nb_streams":3,
  "nb_programs":1,
  "format_name":"mpegts",
  "format_long_name":"MPEG-TS (MPEG-2 Transport Stream)",
  "start_time":"288.028889",
  "duration":"2080.503444",
  "size":"1368029940",
  "bit_rate":"5260380",
  "probe_score":50
 }
}

Related videos

chaturbate ness_rouge 2019-04-11 17:42:14
1h:30m:1s
3.33GB
1920x1080
0FPS
chaturbate ness_rouge 2019-04-11 20:55:14
1h:10m:19s
2.59GB
1920x1080
0FPS
chaturbate ness_rouge 2019-04-13 23:14:57
2h:16m:39s
5.06GB
1920x1080
0FPS
chaturbate ness_rouge 2019-04-14 21:54:44
2h:25m:30s
5.39GB
1920x1080
0FPS
chaturbate ness_rouge 2019-04-16 00:34:24
2h:36m:22s
5.79GB
1920x1080
0FPS
chaturbate ness_rouge 2019-04-20 23:41:11
4h:40m:21s
10.39GB
1920x1080
0FPS
chaturbate ness_rouge 2019-04-10 20:27:24
1h:15m:4s
2.77GB
1920x1080
0FPS
chaturbate ness_rouge 2019-04-07 21:41:15
2h:30m:4s
5.57GB
1920x1080
0FPS
chaturbate ness_rouge 2019-04-06 06:44:58
40m:13s
1.49GB
1920x1080
0FPS
chaturbate ness_rouge 2019-04-05 20:32:18
1h:56m:55s
4.36GB
1920x1080
0FPS
chaturbate ness_rouge 2019-04-05 19:24:15
57m:33s
2.14GB
1920x1080
0FPS
chaturbate ness_rouge 2019-04-05 18:27:17
36m:37s
1.36GB
1920x1080
0FPS