chaturbate ness_rouge 2019-06-24 14:03:16

Click the screencaps for zoom.


Public webcam show of ness_rouge chaturbate from 2019-06-24 14:03:16

Untouched and best quality possible.

Size: 943.85MB

Duration: 25m:4s

Dimension: 1920x1080

Framerate: 0FPS


User account required



Create an User account

Are you the model?


{
 "streams":[
  {
   "index":0,
   "codec_name":"timed_id3",
   "codec_long_name":"timed ID3 metadata",
   "codec_type":"data",
   "codec_tag_string":"ID3 ",
   "codec_tag":"0x20334449",
   "id":"0x102",
   "r_frame_rate":"0/0",
   "avg_frame_rate":"0/0",
   "time_base":"1/90000",
   "start_pts":6077970,
   "start_time":"67.533000",
   "duration_ts":135404940,
   "duration":"1504.499333",
   "disposition":{
    "default":0,
    "dub":0,
    "original":0,
    "comment":0,
    "lyrics":0,
    "karaoke":0,
    "forced":0,
    "hearing_impaired":0,
    "visual_impaired":0,
    "clean_effects":0,
    "attached_pic":0,
    "timed_thumbnails":0
   }
  },
  {
   "index":1,
   "codec_name":"h264",
   "codec_long_name":"H.264 / AVC / MPEG-4 AVC / MPEG-4 part 10",
   "profile":"High",
   "codec_type":"video",
   "codec_time_base":"1/60",
   "codec_tag_string":"[
    27
   ][
    0
   ][
    0
   ][
    0
   ]",
   "codec_tag":"0x001b",
   "width":1920,
   "height":1080,
   "coded_width":1920,
   "coded_height":1080,
   "has_b_frames":0,
   "sample_aspect_ratio":"1:1",
   "display_aspect_ratio":"16:9",
   "pix_fmt":"yuv420p",
   "level":40,
   "chroma_location":"left",
   "field_order":"progressive",
   "refs":1,
   "is_avc":"false",
   "nal_length_size":"0",
   "id":"0x100",
   "r_frame_rate":"30/1",
   "avg_frame_rate":"30/1",
   "time_base":"1/90000",
   "start_pts":6077970,
   "start_time":"67.533000",
   "duration_ts":135404940,
   "duration":"1504.499333",
   "bits_per_raw_sample":"8",
   "disposition":{
    "default":0,
    "dub":0,
    "original":0,
    "comment":0,
    "lyrics":0,
    "karaoke":0,
    "forced":0,
    "hearing_impaired":0,
    "visual_impaired":0,
    "clean_effects":0,
    "attached_pic":0,
    "timed_thumbnails":0
   }
  },
  {
   "index":2,
   "codec_name":"aac",
   "codec_long_name":"AAC (Advanced Audio Coding)",
   "profile":"LC",
   "codec_type":"audio",
   "codec_time_base":"1/44100",
   "codec_tag_string":"[
    15
   ][
    0
   ][
    0
   ][
    0
   ]",
   "codec_tag":"0x000f",
   "sample_fmt":"fltp",
   "sample_rate":"44100",
   "channels":2,
   "channel_layout":"stereo",
   "bits_per_sample":0,
   "id":"0x101",
   "r_frame_rate":"0/0",
   "avg_frame_rate":"0/0",
   "time_base":"1/90000",
   "start_pts":6079988,
   "start_time":"67.555422",
   "duration_ts":135395787,
   "duration":"1504.397633",
   "bit_rate":"135400",
   "disposition":{
    "default":0,
    "dub":0,
    "original":0,
    "comment":0,
    "lyrics":0,
    "karaoke":0,
    "forced":0,
    "hearing_impaired":0,
    "visual_impaired":0,
    "clean_effects":0,
    "attached_pic":0,
    "timed_thumbnails":0
   }
  }
 ],
 "format":{
  "filename":"chaturbate-ness_rouge-1561384996.mp4",
  "nb_streams":3,
  "nb_programs":1,
  "format_name":"mpegts",
  "format_long_name":"MPEG-TS (MPEG-2 Transport Stream)",
  "start_time":"67.533000",
  "duration":"1504.499333",
  "size":"989696860",
  "bit_rate":"5262597",
  "probe_score":50
 }
}

Related videos

chaturbate ness_rouge 2019-06-24 17:38:11
1h:20m:24s
2.97GB
1920x1080
0FPS
chaturbate ness_rouge 2019-06-25 06:36:04
4h:5m:12s
9.04GB
1920x1080
0FPS
chaturbate ness_rouge 2019-07-08 20:50:06
30m:15s
1.11GB
1920x1080
0FPS
chaturbate ness_rouge 2019-07-08 21:23:08
3h:9m:24s
7.01GB
1920x1080
0FPS
chaturbate ness_rouge 2019-07-09 01:20:44
24m:10s
861.00MB
1920x1080
0FPS
chaturbate ness_rouge 2019-07-09 01:47:39
51m:40s
1.87GB
1920x1080
30FPS
chaturbate ness_rouge 2019-06-24 12:52:21
1h:9m:39s
2.57GB
1920x1080
0FPS
chaturbate ness_rouge 2019-06-20 03:30:28
26m:0s
938.56MB
1920x1080
0FPS
chaturbate ness_rouge 2019-06-20 02:09:27
1h:17m:42s
2.02GB
1920x1080
0FPS
chaturbate ness_rouge 2019-05-29 23:46:23
1h:52m:40s
4.08GB
1920x1080
0FPS
chaturbate ness_rouge 2019-05-29 20:27:36
1h:14m:15s
2.74GB
1920x1080
0FPS
chaturbate ness_rouge 2019-05-27 16:54:01
1h:8m:24s
2.54GB
1920x1080
0FPS