chaturbate nettie789 2019-10-10 14:56:17

Click the screencaps for zoom.


Public webcam show of nettie789 chaturbate from 2019-10-10 14:56:17

Untouched and best quality possible.

Size: 34.21MB

Duration: 3m:8s

Dimension: 1280x720

Framerate: 30FPS



User account required



Create an User account

Are you the model?


You might need VLC to play the video (every advanced media player will do).
VLC for Android

VLC for Windows/Mac OS X/Linux


{
 "streams":[
  {
   "index":0,
   "codec_name":"timed_id3",
   "codec_long_name":"timed ID3 metadata",
   "codec_type":"data",
   "codec_tag_string":"ID3 ",
   "codec_tag":"0x20334449",
   "id":"0x102",
   "r_frame_rate":"0/0",
   "avg_frame_rate":"0/0",
   "time_base":"1/90000",
   "start_pts":11611440,
   "start_time":"129.016000",
   "duration_ts":17041320,
   "duration":"189.348000",
   "disposition":{
    "default":0,
    "dub":0,
    "original":0,
    "comment":0,
    "lyrics":0,
    "karaoke":0,
    "forced":0,
    "hearing_impaired":0,
    "visual_impaired":0,
    "clean_effects":0,
    "attached_pic":0,
    "timed_thumbnails":0
   }
  },
  {
   "index":1,
   "codec_name":"h264",
   "codec_long_name":"H.264 / AVC / MPEG-4 AVC / MPEG-4 part 10",
   "profile":"Main",
   "codec_type":"video",
   "codec_time_base":"1/60",
   "codec_tag_string":"[
    27
   ][
    0
   ][
    0
   ][
    0
   ]",
   "codec_tag":"0x001b",
   "width":1280,
   "height":720,
   "coded_width":1280,
   "coded_height":720,
   "has_b_frames":0,
   "sample_aspect_ratio":"1:1",
   "display_aspect_ratio":"16:9",
   "pix_fmt":"yuv420p",
   "level":31,
   "chroma_location":"left",
   "field_order":"progressive",
   "refs":1,
   "is_avc":"false",
   "nal_length_size":"0",
   "id":"0x100",
   "r_frame_rate":"30/1",
   "avg_frame_rate":"30/1",
   "time_base":"1/90000",
   "start_pts":11611440,
   "start_time":"129.016000",
   "duration_ts":16942620,
   "duration":"188.251333",
   "bits_per_raw_sample":"8",
   "disposition":{
    "default":0,
    "dub":0,
    "original":0,
    "comment":0,
    "lyrics":0,
    "karaoke":0,
    "forced":0,
    "hearing_impaired":0,
    "visual_impaired":0,
    "clean_effects":0,
    "attached_pic":0,
    "timed_thumbnails":0
   }
  },
  {
   "index":2,
   "codec_name":"aac",
   "codec_long_name":"AAC (Advanced Audio Coding)",
   "profile":"LC",
   "codec_type":"audio",
   "codec_time_base":"1/16000",
   "codec_tag_string":"[
    15
   ][
    0
   ][
    0
   ][
    0
   ]",
   "codec_tag":"0x000f",
   "sample_fmt":"fltp",
   "sample_rate":"16000",
   "channels":1,
   "channel_layout":"mono",
   "bits_per_sample":0,
   "id":"0x101",
   "r_frame_rate":"0/0",
   "avg_frame_rate":"0/0",
   "time_base":"1/90000",
   "start_pts":11612520,
   "start_time":"129.028000",
   "duration_ts":17040240,
   "duration":"189.336000",
   "bit_rate":"95875",
   "disposition":{
    "default":0,
    "dub":0,
    "original":0,
    "comment":0,
    "lyrics":0,
    "karaoke":0,
    "forced":0,
    "hearing_impaired":0,
    "visual_impaired":0,
    "clean_effects":0,
    "attached_pic":0,
    "timed_thumbnails":0
   }
  }
 ],
 "format":{
  "filename":"chaturbate-nettie789-1570719377.mp4",
  "nb_streams":3,
  "nb_programs":1,
  "format_name":"mpegts",
  "format_long_name":"MPEG-TS (MPEG-2 Transport Stream)",
  "start_time":"129.016000",
  "duration":"189.348000",
  "size":"35874724",
  "bit_rate":"1515715",
  "probe_score":50
 }
}

Related videos

chaturbate nettie789 2019-10-10 15:02:32
15m:59s
173.48MB
1280x720
30FPS
chaturbate nettie789 2019-10-10 15:23:07
43m:46s
0.96GB
1280x720
30FPS
chaturbate nettie789 2019-10-10 16:11:53
10m:11s
40.48MB
1024x576
30FPS
chaturbate nettie789 2019-10-10 16:24:10
23m:31s
534.12MB
1280x720
30FPS
chaturbate nettie789 2019-10-10 16:51:05
15m:48s
356.77MB
1280x720
30FPS
chaturbate nettie789 2019-10-10 17:09:55
38m:43s
870.01MB
1280x720
30FPS
chaturbate nettie789 2019-10-10 11:29:52
51m:14s
230.07MB
1280x720
30FPS
chaturbate nettie789 2019-10-10 09:47:21
1h:31m:21s
404.68MB
1280x720
30FPS
chaturbate nettie789 2019-10-10 06:15:46
1h:48m:29s
623.94MB
1280x720
30FPS
chaturbate nettie789 2019-10-10 05:57:57
15m:40s
98.84MB
1280x720
30FPS
chaturbate nettie789 2019-10-10 05:11:34
40m:13s
222.99MB
1280x720
30FPS
chaturbate nettie789 2019-10-09 21:28:22
9m:55s
158.21MB
1280x720
30FPS