chaturbate ohnicoleshine 2019-10-10 14:58:46

Click the screencaps for zoom.


Public webcam show of ohnicoleshine chaturbate from 2019-10-10 14:58:46

Untouched and best quality possible.

Size: 32.39MB

Duration: 4m:50s

Dimension: 768x576

Framerate: 30FPS



User account required



Create an User account

Are you the model?


You might need VLC to play the video (every advanced media player will do).
VLC for Android

VLC for Windows/Mac OS X/Linux


{
 "streams":[
  {
   "index":0,
   "codec_name":"timed_id3",
   "codec_long_name":"timed ID3 metadata",
   "codec_type":"data",
   "codec_tag_string":"ID3 ",
   "codec_tag":"0x20334449",
   "id":"0x102",
   "r_frame_rate":"0/0",
   "avg_frame_rate":"0/0",
   "time_base":"1/90000",
   "start_pts":105439410,
   "start_time":"1171.549000",
   "duration_ts":26183640,
   "duration":"290.929333",
   "disposition":{
    "default":0,
    "dub":0,
    "original":0,
    "comment":0,
    "lyrics":0,
    "karaoke":0,
    "forced":0,
    "hearing_impaired":0,
    "visual_impaired":0,
    "clean_effects":0,
    "attached_pic":0,
    "timed_thumbnails":0
   }
  },
  {
   "index":1,
   "codec_name":"h264",
   "codec_long_name":"H.264 / AVC / MPEG-4 AVC / MPEG-4 part 10",
   "profile":"Main",
   "codec_type":"video",
   "codec_time_base":"1/60",
   "codec_tag_string":"[
    27
   ][
    0
   ][
    0
   ][
    0
   ]",
   "codec_tag":"0x001b",
   "width":768,
   "height":576,
   "coded_width":768,
   "coded_height":576,
   "has_b_frames":0,
   "sample_aspect_ratio":"1:1",
   "display_aspect_ratio":"4:3",
   "pix_fmt":"yuv420p",
   "level":31,
   "chroma_location":"left",
   "field_order":"progressive",
   "refs":1,
   "is_avc":"false",
   "nal_length_size":"0",
   "id":"0x100",
   "r_frame_rate":"30/1",
   "avg_frame_rate":"30/1",
   "time_base":"1/90000",
   "start_pts":105440130,
   "start_time":"1171.557000",
   "duration_ts":26182920,
   "duration":"290.921333",
   "bits_per_raw_sample":"8",
   "disposition":{
    "default":0,
    "dub":0,
    "original":0,
    "comment":0,
    "lyrics":0,
    "karaoke":0,
    "forced":0,
    "hearing_impaired":0,
    "visual_impaired":0,
    "clean_effects":0,
    "attached_pic":0,
    "timed_thumbnails":0
   }
  },
  {
   "index":2,
   "codec_name":"aac",
   "codec_long_name":"AAC (Advanced Audio Coding)",
   "profile":"LC",
   "codec_type":"audio",
   "codec_time_base":"1/16000",
   "codec_tag_string":"[
    15
   ][
    0
   ][
    0
   ][
    0
   ]",
   "codec_tag":"0x000f",
   "sample_fmt":"fltp",
   "sample_rate":"16000",
   "channels":1,
   "channel_layout":"mono",
   "bits_per_sample":0,
   "id":"0x101",
   "r_frame_rate":"0/0",
   "avg_frame_rate":"0/0",
   "time_base":"1/90000",
   "start_pts":105439410,
   "start_time":"1171.549000",
   "duration_ts":26164620,
   "duration":"290.718000",
   "bit_rate":"47750",
   "disposition":{
    "default":0,
    "dub":0,
    "original":0,
    "comment":0,
    "lyrics":0,
    "karaoke":0,
    "forced":0,
    "hearing_impaired":0,
    "visual_impaired":0,
    "clean_effects":0,
    "attached_pic":0,
    "timed_thumbnails":0
   }
  }
 ],
 "format":{
  "filename":"chaturbate-ohnicoleshine-1570719526.mp4",
  "nb_streams":3,
  "nb_programs":1,
  "format_name":"mpegts",
  "format_long_name":"MPEG-TS (MPEG-2 Transport Stream)",
  "start_time":"1171.549000",
  "duration":"290.929333",
  "size":"33959380",
  "bit_rate":"933817",
  "probe_score":50
 }
}

Related videos

chaturbate ohnicoleshine 2019-10-10 15:06:39
53m:19s
308.81MB
768x576
30FPS
chaturbate ohnicoleshine 2019-10-10 16:03:03
49m:1s
174.74MB
768x576
30FPS
chaturbate ohnicoleshine 2019-10-10 17:07:47
8m:4s
49.49MB
768x576
30FPS
chaturbate ohnicoleshine 2019-10-10 17:35:47
30m:14s
173.36MB
768x576
30FPS
chaturbate ohnicoleshine 2019-10-10 18:18:21
15m:31s
86.96MB
768x576
30FPS
chaturbate ohnicoleshine 2019-10-10 18:42:56
11m:59s
72.54MB
768x576
30FPS
chaturbate ohnicoleshine 2019-10-10 14:43:20
9m:58s
55.99MB
768x576
30FPS
chaturbate ohnicoleshine 2019-10-10 14:15:38
4m:58s
37.87MB
768x576
30FPS
chaturbate ohnicoleshine 2019-10-10 13:57:33
16m:56s
80.19MB
768x576
30FPS
chaturbate ohnicoleshine 2019-10-10 13:52:28
4m:46s
35.98MB
768x576
30FPS
chaturbate ohnicoleshine 2019-10-10 13:44:15
7m:35s
52.63MB
768x576
30FPS
chaturbate ohnicoleshine 2019-10-10 13:08:36
33m:33s
219.96MB
768x576
30FPS