chaturbate punkyqueenx 2019-10-10 14:54:43

Click the screencaps for zoom.


Public webcam show of punkyqueenx chaturbate from 2019-10-10 14:54:43

Untouched and best quality possible.

Size: 125.01MB

Duration: 5m:42s

Dimension: 1280x720

Framerate: 30FPS



User account required



Create an User account

Are you the model?


{
 "streams":[
  {
   "index":0,
   "codec_name":"timed_id3",
   "codec_long_name":"timed ID3 metadata",
   "codec_type":"data",
   "codec_tag_string":"ID3 ",
   "codec_tag":"0x20334449",
   "id":"0x102",
   "r_frame_rate":"0/0",
   "avg_frame_rate":"0/0",
   "time_base":"1/90000",
   "start_pts":10935463,
   "start_time":"121.505144",
   "duration_ts":30782447,
   "duration":"342.027189",
   "disposition":{
    "default":0,
    "dub":0,
    "original":0,
    "comment":0,
    "lyrics":0,
    "karaoke":0,
    "forced":0,
    "hearing_impaired":0,
    "visual_impaired":0,
    "clean_effects":0,
    "attached_pic":0,
    "timed_thumbnails":0
   }
  },
  {
   "index":1,
   "codec_name":"h264",
   "codec_long_name":"H.264 / AVC / MPEG-4 AVC / MPEG-4 part 10",
   "profile":"Main",
   "codec_type":"video",
   "codec_time_base":"1/60",
   "codec_tag_string":"[
    27
   ][
    0
   ][
    0
   ][
    0
   ]",
   "codec_tag":"0x001b",
   "width":1280,
   "height":720,
   "coded_width":1280,
   "coded_height":720,
   "has_b_frames":0,
   "sample_aspect_ratio":"1:1",
   "display_aspect_ratio":"16:9",
   "pix_fmt":"yuv420p",
   "level":31,
   "chroma_location":"left",
   "field_order":"progressive",
   "refs":1,
   "is_avc":"false",
   "nal_length_size":"0",
   "id":"0x100",
   "r_frame_rate":"30/1",
   "avg_frame_rate":"30/1",
   "time_base":"1/90000",
   "start_pts":10937880,
   "start_time":"121.532000",
   "duration_ts":30780030,
   "duration":"342.000333",
   "bits_per_raw_sample":"8",
   "disposition":{
    "default":0,
    "dub":0,
    "original":0,
    "comment":0,
    "lyrics":0,
    "karaoke":0,
    "forced":0,
    "hearing_impaired":0,
    "visual_impaired":0,
    "clean_effects":0,
    "attached_pic":0,
    "timed_thumbnails":0
   }
  },
  {
   "index":2,
   "codec_name":"aac",
   "codec_long_name":"AAC (Advanced Audio Coding)",
   "profile":"LC",
   "codec_type":"audio",
   "codec_time_base":"1/44100",
   "codec_tag_string":"[
    15
   ][
    0
   ][
    0
   ][
    0
   ]",
   "codec_tag":"0x000f",
   "sample_fmt":"fltp",
   "sample_rate":"44100",
   "channels":2,
   "channel_layout":"stereo",
   "bits_per_sample":0,
   "id":"0x101",
   "r_frame_rate":"0/0",
   "avg_frame_rate":"0/0",
   "time_base":"1/90000",
   "start_pts":10935463,
   "start_time":"121.505144",
   "duration_ts":30778514,
   "duration":"341.983489",
   "bit_rate":"94057",
   "disposition":{
    "default":0,
    "dub":0,
    "original":0,
    "comment":0,
    "lyrics":0,
    "karaoke":0,
    "forced":0,
    "hearing_impaired":0,
    "visual_impaired":0,
    "clean_effects":0,
    "attached_pic":0,
    "timed_thumbnails":0
   }
  }
 ],
 "format":{
  "filename":"chaturbate-punkyqueenx-1570719283.mp4",
  "nb_streams":3,
  "nb_programs":1,
  "format_name":"mpegts",
  "format_long_name":"MPEG-TS (MPEG-2 Transport Stream)",
  "start_time":"121.505144",
  "duration":"342.027189",
  "size":"131077360",
  "bit_rate":"3065893",
  "probe_score":50
 }
}

Related videos

chaturbate punkyqueenx 2019-10-10 15:09:46
39m:44s
877.80MB
1280x720
30FPS
chaturbate punkyqueenx 2019-10-10 16:08:22
52m:33s
1.10GB
1280x720
30FPS
chaturbate punkyqueenx 2019-10-10 17:36:17
7m:0s
144.00MB
1280x720
30FPS
chaturbate punkyqueenx 2019-10-10 18:01:30
36m:57s
775.16MB
1280x720
30FPS
chaturbate punkyqueenx 2019-10-11 14:04:12
11m:39s
258.35MB
1280x720
30FPS
chaturbate punkyqueenx 2019-10-11 14:19:49
29m:10s
524.82MB
1280x720
30FPS
chaturbate punkyqueenx 2019-10-10 13:25:59
1h:21m:46s
1.79GB
1280x720
30FPS
chaturbate punkyqueenx 2019-10-10 00:12:55
12m:3s
272.83MB
1280x720
30FPS
chaturbate punkyqueenx 2019-10-09 23:25:53
38m:40s
858.39MB
1280x720
30FPS
chaturbate punkyqueenx 2019-10-09 20:56:07
19m:51s
449.03MB
1280x720
30FPS
chaturbate punkyqueenx 2019-10-09 20:16:50
23m:31s
532.76MB
1280x720
30FPS
chaturbate punkyqueenx 2019-10-07 17:08:48
1h:22m:51s
1.82GB
1280x720
30FPS