chaturbate sexxbabysexx 2019-10-10 14:59:17

Click the screencaps for zoom.


Public webcam show of sexxbabysexx chaturbate from 2019-10-10 14:59:17

Untouched and best quality possible.

Size: 37.47MB

Duration: 3m:43s

Dimension: 800x600

Framerate: 30FPS



User account required



Create an User account

Are you the model?


{
 "streams":[
  {
   "index":0,
   "codec_name":"timed_id3",
   "codec_long_name":"timed ID3 metadata",
   "codec_type":"data",
   "codec_tag_string":"ID3 ",
   "codec_tag":"0x20334449",
   "id":"0x102",
   "r_frame_rate":"0/0",
   "avg_frame_rate":"0/0",
   "time_base":"1/90000",
   "start_pts":30100950,
   "start_time":"334.455000",
   "duration_ts":20146800,
   "duration":"223.853333",
   "disposition":{
    "default":0,
    "dub":0,
    "original":0,
    "comment":0,
    "lyrics":0,
    "karaoke":0,
    "forced":0,
    "hearing_impaired":0,
    "visual_impaired":0,
    "clean_effects":0,
    "attached_pic":0,
    "timed_thumbnails":0
   }
  },
  {
   "index":1,
   "codec_name":"h264",
   "codec_long_name":"H.264 / AVC / MPEG-4 AVC / MPEG-4 part 10",
   "profile":"Main",
   "codec_type":"video",
   "codec_time_base":"1/60",
   "codec_tag_string":"[
    27
   ][
    0
   ][
    0
   ][
    0
   ]",
   "codec_tag":"0x001b",
   "width":800,
   "height":600,
   "coded_width":800,
   "coded_height":600,
   "has_b_frames":0,
   "sample_aspect_ratio":"1:1",
   "display_aspect_ratio":"4:3",
   "pix_fmt":"yuv420p",
   "level":31,
   "color_range":"tv",
   "chroma_location":"left",
   "field_order":"progressive",
   "refs":1,
   "is_avc":"false",
   "nal_length_size":"0",
   "id":"0x100",
   "r_frame_rate":"30/1",
   "avg_frame_rate":"30/1",
   "time_base":"1/90000",
   "start_pts":30110580,
   "start_time":"334.562000",
   "duration_ts":20137170,
   "duration":"223.746333",
   "bits_per_raw_sample":"8",
   "disposition":{
    "default":0,
    "dub":0,
    "original":0,
    "comment":0,
    "lyrics":0,
    "karaoke":0,
    "forced":0,
    "hearing_impaired":0,
    "visual_impaired":0,
    "clean_effects":0,
    "attached_pic":0,
    "timed_thumbnails":0
   }
  },
  {
   "index":2,
   "codec_name":"aac",
   "codec_long_name":"AAC (Advanced Audio Coding)",
   "profile":"LC",
   "codec_type":"audio",
   "codec_time_base":"1/16000",
   "codec_tag_string":"[
    15
   ][
    0
   ][
    0
   ][
    0
   ]",
   "codec_tag":"0x000f",
   "sample_fmt":"fltp",
   "sample_rate":"16000",
   "channels":1,
   "channel_layout":"mono",
   "bits_per_sample":0,
   "id":"0x101",
   "r_frame_rate":"0/0",
   "avg_frame_rate":"0/0",
   "time_base":"1/90000",
   "start_pts":30100950,
   "start_time":"334.455000",
   "duration_ts":20136960,
   "duration":"223.744000",
   "bit_rate":"47625",
   "disposition":{
    "default":0,
    "dub":0,
    "original":0,
    "comment":0,
    "lyrics":0,
    "karaoke":0,
    "forced":0,
    "hearing_impaired":0,
    "visual_impaired":0,
    "clean_effects":0,
    "attached_pic":0,
    "timed_thumbnails":0
   }
  }
 ],
 "format":{
  "filename":"chaturbate-sexxbabysexx-1570719557.mp4",
  "nb_streams":3,
  "nb_programs":1,
  "format_name":"mpegts",
  "format_long_name":"MPEG-TS (MPEG-2 Transport Stream)",
  "start_time":"334.455000",
  "duration":"223.853333",
  "size":"39288616",
  "bit_rate":"1404084",
  "probe_score":50
 }
}

Related videos

chaturbate sexxbabysexx 2019-10-10 15:14:08
53m:32s
439.93MB
800x600
30FPS
chaturbate sexxbabysexx 2019-10-10 16:59:50
18m:31s
204.65MB
800x600
30FPS
chaturbate sexxbabysexx 2019-10-10 17:58:47
10m:20s
91.64MB
800x600
30FPS
chaturbate sexxbabysexx 2019-10-10 18:11:14
14m:43s
185.85MB
800x600
30FPS
chaturbate sexxbabysexx 2019-10-10 18:27:15
19m:11s
251.88MB
800x600
30FPS
chaturbate sexxbabysexx 2019-10-11 12:15:45
20m:3s
273.26MB
800x600
30FPS
chaturbate sexxbabysexx 2019-10-10 14:06:49
28m:26s
201.71MB
800x600
30FPS
chaturbate sexxbabysexx 2019-10-10 12:19:49
1h:18m:20s
494.58MB
800x600
30FPS
chaturbate sexxbabysexx 2019-10-09 23:47:36
3m:18s
22.54MB
800x600
30FPS
chaturbate sexxbabysexx 2019-10-09 22:44:23
49m:35s
440.88MB
800x600
30FPS
chaturbate sexxbabysexx 2019-10-09 22:22:46
17m:37s
134.62MB
854x480
30FPS
chaturbate sexxbabysexx 2019-10-09 20:56:39
1h:15m:5s
718.08MB
1024x768
30FPS