chaturbate sexy_skinny_latina 2019-10-10 14:55:07

Click the screencaps for zoom.


Public webcam show of sexy_skinny_latina chaturbate from 2019-10-10 14:55:07

Untouched and best quality possible.

Size: 40.25MB

Duration: 5m:37s

Dimension: 854x480

Framerate: 30FPS



User account required



Create an User account

Are you the model?


You might need VLC to play the video (every advanced media player will do).
VLC for Android

VLC for Windows/Mac OS X/Linux


{
 "streams":[
  {
   "index":0,
   "codec_name":"timed_id3",
   "codec_long_name":"timed ID3 metadata",
   "codec_type":"data",
   "codec_tag_string":"ID3 ",
   "codec_tag":"0x20334449",
   "id":"0x102",
   "r_frame_rate":"0/0",
   "avg_frame_rate":"0/0",
   "time_base":"1/90000",
   "start_pts":9454410,
   "start_time":"105.049000",
   "duration_ts":30605040,
   "duration":"340.056000",
   "disposition":{
    "default":0,
    "dub":0,
    "original":0,
    "comment":0,
    "lyrics":0,
    "karaoke":0,
    "forced":0,
    "hearing_impaired":0,
    "visual_impaired":0,
    "clean_effects":0,
    "attached_pic":0,
    "timed_thumbnails":0
   }
  },
  {
   "index":1,
   "codec_name":"h264",
   "codec_long_name":"H.264 / AVC / MPEG-4 AVC / MPEG-4 part 10",
   "profile":"Main",
   "codec_type":"video",
   "codec_time_base":"1/60",
   "codec_tag_string":"[
    27
   ][
    0
   ][
    0
   ][
    0
   ]",
   "codec_tag":"0x001b",
   "width":854,
   "height":480,
   "coded_width":854,
   "coded_height":480,
   "has_b_frames":0,
   "sample_aspect_ratio":"1:1",
   "display_aspect_ratio":"427:240",
   "pix_fmt":"yuv420p",
   "level":31,
   "color_range":"tv",
   "chroma_location":"left",
   "field_order":"progressive",
   "refs":1,
   "is_avc":"false",
   "nal_length_size":"0",
   "id":"0x100",
   "r_frame_rate":"30/1",
   "avg_frame_rate":"30/1",
   "time_base":"1/90000",
   "start_pts":9457650,
   "start_time":"105.085000",
   "duration_ts":30337770,
   "duration":"337.086333",
   "bits_per_raw_sample":"8",
   "disposition":{
    "default":0,
    "dub":0,
    "original":0,
    "comment":0,
    "lyrics":0,
    "karaoke":0,
    "forced":0,
    "hearing_impaired":0,
    "visual_impaired":0,
    "clean_effects":0,
    "attached_pic":0,
    "timed_thumbnails":0
   }
  },
  {
   "index":2,
   "codec_name":"aac",
   "codec_long_name":"AAC (Advanced Audio Coding)",
   "profile":"LC",
   "codec_type":"audio",
   "codec_time_base":"1/16000",
   "codec_tag_string":"[
    15
   ][
    0
   ][
    0
   ][
    0
   ]",
   "codec_tag":"0x000f",
   "sample_fmt":"fltp",
   "sample_rate":"16000",
   "channels":1,
   "channel_layout":"mono",
   "bits_per_sample":0,
   "id":"0x101",
   "r_frame_rate":"0/0",
   "avg_frame_rate":"0/0",
   "time_base":"1/90000",
   "start_pts":9454410,
   "start_time":"105.049000",
   "duration_ts":30605040,
   "duration":"340.056000",
   "bit_rate":"54750",
   "disposition":{
    "default":0,
    "dub":0,
    "original":0,
    "comment":0,
    "lyrics":0,
    "karaoke":0,
    "forced":0,
    "hearing_impaired":0,
    "visual_impaired":0,
    "clean_effects":0,
    "attached_pic":0,
    "timed_thumbnails":0
   }
  }
 ],
 "format":{
  "filename":"chaturbate-sexy_skinny_latina-1570719307.mp4",
  "nb_streams":3,
  "nb_programs":1,
  "format_name":"mpegts",
  "format_long_name":"MPEG-TS (MPEG-2 Transport Stream)",
  "start_time":"105.049000",
  "duration":"340.056000",
  "size":"42203014",
  "bit_rate":"992848",
  "probe_score":50
 }
}

Related videos

chaturbate sexy_skinny_latina 2019-10-10 15:02:44
1h:6m:10s
649.95MB
854x480
30FPS
chaturbate sexy_skinny_latina 2019-10-10 16:10:35
7m:37s
85.21MB
854x480
30FPS
chaturbate sexy_skinny_latina 2019-10-10 16:18:35
49m:2s
347.42MB
854x480
30FPS
chaturbate sexy_skinny_latina 2019-10-10 17:23:13
3m:0s
26.84MB
854x480
30FPS
chaturbate sexy_skinny_latina 2019-10-10 17:27:28
33m:16s
274.83MB
854x480
30FPS
chaturbate sexy_skinny_latina 2019-10-11 14:29:36
16m:47s
187.66MB
854x480
30FPS
chaturbate sexy_skinny_latina 2019-10-10 14:21:00
32m:9s
240.11MB
854x480
30FPS
chaturbate sexy_skinny_latina 2019-10-09 19:10:13
8m:40s
74.54MB
854x480
30FPS
chaturbate sexy_skinny_latina 2019-10-09 18:38:42
18m:7s
166.20MB
854x480
30FPS
chaturbate sexy_skinny_latina 2019-10-09 17:26:16
1h:11m:23s
610.68MB
854x480
30FPS
chaturbate sexy_skinny_latina 2019-10-09 16:49:23
7m:28s
87.41MB
854x480
30FPS
chaturbate sexy_skinny_latina 2019-10-09 16:32:03
15m:22s
210.81MB
854x480
30FPS