chaturbate sharonsexyblack 2019-10-10 14:55:31

Click the screencaps for zoom.


Public webcam show of sharonsexyblack chaturbate from 2019-10-10 14:55:31

Untouched and best quality possible.

Size: 26.92MB

Duration: 6m:14s

Dimension: 640x480

Framerate: 30FPS



User account required



Create an User account

Are you the model?


{
 "streams":[
  {
   "index":0,
   "codec_name":"timed_id3",
   "codec_long_name":"timed ID3 metadata",
   "codec_type":"data",
   "codec_tag_string":"ID3 ",
   "codec_tag":"0x20334449",
   "id":"0x102",
   "r_frame_rate":"0/0",
   "avg_frame_rate":"0/0",
   "time_base":"1/90000",
   "start_pts":35639640,
   "start_time":"395.996000",
   "duration_ts":33750660,
   "duration":"375.007333",
   "disposition":{
    "default":0,
    "dub":0,
    "original":0,
    "comment":0,
    "lyrics":0,
    "karaoke":0,
    "forced":0,
    "hearing_impaired":0,
    "visual_impaired":0,
    "clean_effects":0,
    "attached_pic":0,
    "timed_thumbnails":0
   }
  },
  {
   "index":1,
   "codec_name":"h264",
   "codec_long_name":"H.264 / AVC / MPEG-4 AVC / MPEG-4 part 10",
   "profile":"Main",
   "codec_type":"video",
   "codec_time_base":"1/60",
   "codec_tag_string":"[
    27
   ][
    0
   ][
    0
   ][
    0
   ]",
   "codec_tag":"0x001b",
   "width":640,
   "height":480,
   "coded_width":640,
   "coded_height":480,
   "has_b_frames":0,
   "sample_aspect_ratio":"1:1",
   "display_aspect_ratio":"4:3",
   "pix_fmt":"yuv420p",
   "level":30,
   "chroma_location":"left",
   "field_order":"progressive",
   "refs":1,
   "is_avc":"false",
   "nal_length_size":"0",
   "id":"0x100",
   "r_frame_rate":"30/1",
   "avg_frame_rate":"30/1",
   "time_base":"1/90000",
   "start_pts":35641710,
   "start_time":"396.019000",
   "duration_ts":33748590,
   "duration":"374.984333",
   "bits_per_raw_sample":"8",
   "disposition":{
    "default":0,
    "dub":0,
    "original":0,
    "comment":0,
    "lyrics":0,
    "karaoke":0,
    "forced":0,
    "hearing_impaired":0,
    "visual_impaired":0,
    "clean_effects":0,
    "attached_pic":0,
    "timed_thumbnails":0
   }
  },
  {
   "index":2,
   "codec_name":"aac",
   "codec_long_name":"AAC (Advanced Audio Coding)",
   "profile":"LC",
   "codec_type":"audio",
   "codec_time_base":"1/16000",
   "codec_tag_string":"[
    15
   ][
    0
   ][
    0
   ][
    0
   ]",
   "codec_tag":"0x000f",
   "sample_fmt":"fltp",
   "sample_rate":"16000",
   "channels":1,
   "channel_layout":"mono",
   "bits_per_sample":0,
   "id":"0x101",
   "r_frame_rate":"0/0",
   "avg_frame_rate":"0/0",
   "time_base":"1/90000",
   "start_pts":35639640,
   "start_time":"395.996000",
   "duration_ts":33732720,
   "duration":"374.808000",
   "bit_rate":"50000",
   "disposition":{
    "default":0,
    "dub":0,
    "original":0,
    "comment":0,
    "lyrics":0,
    "karaoke":0,
    "forced":0,
    "hearing_impaired":0,
    "visual_impaired":0,
    "clean_effects":0,
    "attached_pic":0,
    "timed_thumbnails":0
   }
  }
 ],
 "format":{
  "filename":"chaturbate-sharonsexyblack-1570719331.mp4",
  "nb_streams":3,
  "nb_programs":1,
  "format_name":"mpegts",
  "format_long_name":"MPEG-TS (MPEG-2 Transport Stream)",
  "start_time":"395.996000",
  "duration":"375.007333",
  "size":"28225192",
  "bit_rate":"602125",
  "probe_score":50
 }
}

Related videos

chaturbate sharonsexyblack 2019-10-10 16:09:49
11m:22s
50.32MB
640x480
30FPS
chaturbate sharonsexyblack 2019-10-10 16:27:08
20m:10s
89.10MB
640x480
30FPS
chaturbate sharonsexyblack 2019-10-10 17:36:35
41m:40s
184.25MB
640x480
30FPS
chaturbate sharonsexyblack 2019-10-10 18:34:42
21m:18s
90.72MB
640x480
30FPS
chaturbate sharonsexyblack 2019-10-11 14:48:16
25m:1s
28.08MB
640x480
30FPS
chaturbate sharonsexyblack 2019-10-11 15:43:00
49m:52s
85.64MB
768x576
30FPS
chaturbate sharonsexyblack 2019-10-09 19:59:24
50m:1s
194.04MB
640x480
30FPS
chaturbate sharonsexyblack 2019-10-09 19:07:37
17m:27s
81.98MB
640x480
30FPS
chaturbate sharonsexyblack 2019-10-09 18:34:21
32m:52s
152.76MB
640x480
30FPS
chaturbate sharonsexyblack 2019-10-09 17:50:36
10m:13s
49.73MB
640x480
30FPS
chaturbate sharonsexyblack 2019-10-09 16:54:57
54m:10s
268.41MB
640x480
30FPS
chaturbate sharonsexyblack 2019-10-09 16:07:28
15m:16s
76.58MB
640x480
30FPS