chaturbate taniajohnson 2019-10-10 14:57:26

Click the screencaps for zoom.


Public webcam show of taniajohnson chaturbate from 2019-10-10 14:57:26

Untouched and best quality possible.

Size: 21.05MB

Duration: 4m:28s

Dimension: 640x480

Framerate: 30FPS



User account required



Create an User account

Are you the model?


{
 "streams":[
  {
   "index":0,
   "codec_name":"timed_id3",
   "codec_long_name":"timed ID3 metadata",
   "codec_type":"data",
   "codec_tag_string":"ID3 ",
   "codec_tag":"0x20334449",
   "id":"0x102",
   "r_frame_rate":"0/0",
   "avg_frame_rate":"0/0",
   "time_base":"1/90000",
   "start_pts":2298780,
   "start_time":"25.542000",
   "duration_ts":24164040,
   "duration":"268.489333",
   "disposition":{
    "default":0,
    "dub":0,
    "original":0,
    "comment":0,
    "lyrics":0,
    "karaoke":0,
    "forced":0,
    "hearing_impaired":0,
    "visual_impaired":0,
    "clean_effects":0,
    "attached_pic":0,
    "timed_thumbnails":0
   }
  },
  {
   "index":1,
   "codec_name":"h264",
   "codec_long_name":"H.264 / AVC / MPEG-4 AVC / MPEG-4 part 10",
   "profile":"Main",
   "codec_type":"video",
   "codec_time_base":"1/60",
   "codec_tag_string":"[
    27
   ][
    0
   ][
    0
   ][
    0
   ]",
   "codec_tag":"0x001b",
   "width":640,
   "height":480,
   "coded_width":640,
   "coded_height":480,
   "has_b_frames":0,
   "sample_aspect_ratio":"1:1",
   "display_aspect_ratio":"4:3",
   "pix_fmt":"yuv420p",
   "level":30,
   "chroma_location":"left",
   "field_order":"progressive",
   "refs":1,
   "is_avc":"false",
   "nal_length_size":"0",
   "id":"0x100",
   "r_frame_rate":"30/1",
   "avg_frame_rate":"30/1",
   "time_base":"1/90000",
   "start_pts":2298780,
   "start_time":"25.542000",
   "duration_ts":24164040,
   "duration":"268.489333",
   "bits_per_raw_sample":"8",
   "disposition":{
    "default":0,
    "dub":0,
    "original":0,
    "comment":0,
    "lyrics":0,
    "karaoke":0,
    "forced":0,
    "hearing_impaired":0,
    "visual_impaired":0,
    "clean_effects":0,
    "attached_pic":0,
    "timed_thumbnails":0
   }
  },
  {
   "index":2,
   "codec_name":"aac",
   "codec_long_name":"AAC (Advanced Audio Coding)",
   "profile":"LC",
   "codec_type":"audio",
   "codec_time_base":"1/16000",
   "codec_tag_string":"[
    15
   ][
    0
   ][
    0
   ][
    0
   ]",
   "codec_tag":"0x000f",
   "sample_fmt":"fltp",
   "sample_rate":"16000",
   "channels":1,
   "channel_layout":"mono",
   "bits_per_sample":0,
   "id":"0x101",
   "r_frame_rate":"0/0",
   "avg_frame_rate":"0/0",
   "time_base":"1/90000",
   "start_pts":2303100,
   "start_time":"25.590000",
   "duration_ts":24145920,
   "duration":"268.288000",
   "bit_rate":"47125",
   "disposition":{
    "default":0,
    "dub":0,
    "original":0,
    "comment":0,
    "lyrics":0,
    "karaoke":0,
    "forced":0,
    "hearing_impaired":0,
    "visual_impaired":0,
    "clean_effects":0,
    "attached_pic":0,
    "timed_thumbnails":0
   }
  }
 ],
 "format":{
  "filename":"chaturbate-taniajohnson-1570719446.mp4",
  "nb_streams":3,
  "nb_programs":1,
  "format_name":"mpegts",
  "format_long_name":"MPEG-TS (MPEG-2 Transport Stream)",
  "start_time":"25.542000",
  "duration":"268.489333",
  "size":"22074772",
  "bit_rate":"657747",
  "probe_score":50
 }
}

Related videos

chaturbate taniajohnson 2019-10-10 15:36:37
44m:52s
155.48MB
640x480
30FPS
chaturbate taniajohnson 2019-10-10 16:25:48
2h:52m:56s
517.77MB
640x480
30FPS
chaturbate taniajohnson 2019-10-10 19:33:34
47m:39s
161.72MB
640x480
30FPS
chaturbate taniajohnson 2019-10-11 12:45:18
1h:5m:59s
236.78MB
640x480
30FPS
chaturbate taniajohnson 2019-10-11 13:51:47
5m:39s
16.32MB
640x480
18FPS
chaturbate taniajohnson 2019-10-11 14:03:28
1h:4m:22s
198.28MB
640x480
30FPS
chaturbate taniajohnson 2019-10-10 12:35:24
2h:20m:14s
496.49MB
640x480
30FPS
chaturbate taniajohnson 2019-10-09 18:05:26
40m:25s
167.72MB
640x480
30FPS
chaturbate taniajohnson 2019-10-09 17:18:31
30m:22s
74.61MB
640x480
30FPS
chaturbate taniajohnson 2019-10-09 15:42:23
1h:31m:49s
298.30MB
640x480
30FPS
chaturbate taniajohnson 2019-10-09 14:42:59
21m:17s
87.16MB
640x480
30FPS
chaturbate taniajohnson 2019-10-09 13:07:49
1h:12m:28s
318.24MB
640x480
30FPS