chaturbate tiffanyclaire 2019-10-10 14:55:32

Click the screencaps for zoom.


Public webcam show of tiffanyclaire chaturbate from 2019-10-10 14:55:32

Untouched and best quality possible.

Size: 142.20MB

Duration: 6m:34s

Dimension: 1280x720

Framerate: 30FPS



User account required



Create an User account

Are you the model?


{
 "streams":[
  {
   "index":0,
   "codec_name":"timed_id3",
   "codec_long_name":"timed ID3 metadata",
   "codec_type":"data",
   "codec_tag_string":"ID3 ",
   "codec_tag":"0x20334449",
   "id":"0x102",
   "r_frame_rate":"0/0",
   "avg_frame_rate":"0/0",
   "time_base":"1/90000",
   "start_pts":1089992880,
   "start_time":"12111.032000",
   "duration_ts":35505030,
   "duration":"394.500333",
   "disposition":{
    "default":0,
    "dub":0,
    "original":0,
    "comment":0,
    "lyrics":0,
    "karaoke":0,
    "forced":0,
    "hearing_impaired":0,
    "visual_impaired":0,
    "clean_effects":0,
    "attached_pic":0,
    "timed_thumbnails":0
   }
  },
  {
   "index":1,
   "codec_name":"h264",
   "codec_long_name":"H.264 / AVC / MPEG-4 AVC / MPEG-4 part 10",
   "profile":"Main",
   "codec_type":"video",
   "codec_time_base":"1/60",
   "codec_tag_string":"[
    27
   ][
    0
   ][
    0
   ][
    0
   ]",
   "codec_tag":"0x001b",
   "width":1280,
   "height":720,
   "coded_width":1280,
   "coded_height":720,
   "has_b_frames":0,
   "sample_aspect_ratio":"1:1",
   "display_aspect_ratio":"16:9",
   "pix_fmt":"yuv420p",
   "level":31,
   "chroma_location":"left",
   "field_order":"progressive",
   "refs":1,
   "is_avc":"false",
   "nal_length_size":"0",
   "id":"0x100",
   "r_frame_rate":"30/1",
   "avg_frame_rate":"30/1",
   "time_base":"1/90000",
   "start_pts":1089992880,
   "start_time":"12111.032000",
   "duration_ts":35505030,
   "duration":"394.500333",
   "bits_per_raw_sample":"8",
   "disposition":{
    "default":0,
    "dub":0,
    "original":0,
    "comment":0,
    "lyrics":0,
    "karaoke":0,
    "forced":0,
    "hearing_impaired":0,
    "visual_impaired":0,
    "clean_effects":0,
    "attached_pic":0,
    "timed_thumbnails":0
   }
  },
  {
   "index":2,
   "codec_name":"aac",
   "codec_long_name":"AAC (Advanced Audio Coding)",
   "profile":"LC",
   "codec_type":"audio",
   "codec_time_base":"1/44100",
   "codec_tag_string":"[
    15
   ][
    0
   ][
    0
   ][
    0
   ]",
   "codec_tag":"0x000f",
   "sample_fmt":"fltp",
   "sample_rate":"44100",
   "channels":2,
   "channel_layout":"stereo",
   "bits_per_sample":0,
   "id":"0x101",
   "r_frame_rate":"0/0",
   "avg_frame_rate":"0/0",
   "time_base":"1/90000",
   "start_pts":1089994437,
   "start_time":"12111.049300",
   "duration_ts":35499362,
   "duration":"394.437356",
   "bit_rate":"96468",
   "disposition":{
    "default":0,
    "dub":0,
    "original":0,
    "comment":0,
    "lyrics":0,
    "karaoke":0,
    "forced":0,
    "hearing_impaired":0,
    "visual_impaired":0,
    "clean_effects":0,
    "attached_pic":0,
    "timed_thumbnails":0
   }
  }
 ],
 "format":{
  "filename":"chaturbate-tiffanyclaire-1570719332.mp4",
  "nb_streams":3,
  "nb_programs":1,
  "format_name":"mpegts",
  "format_long_name":"MPEG-TS (MPEG-2 Transport Stream)",
  "start_time":"12111.032000",
  "duration":"394.500333",
  "size":"149106560",
  "bit_rate":"3023704",
  "probe_score":50
 }
}

Related videos

chaturbate tiffanyclaire 2019-10-10 15:41:34
1h:10m:40s
1.46GB
1280x720
30FPS
chaturbate tiffanyclaire 2019-10-10 16:55:54
29m:49s
621.04MB
1280x720
30FPS
chaturbate tiffanyclaire 2019-10-10 17:30:33
30m:27s
626.78MB
1280x720
30FPS
chaturbate tiffanyclaire 2019-10-11 04:30:59
4m:34s
96.95MB
1280x720
30FPS
chaturbate tiffanyclaire 2019-10-11 06:29:00
5m:36s
111.58MB
1280x720
30FPS
chaturbate tiffanyclaire 2019-10-12 11:51:05
23m:24s
457.98MB
1280x720
30FPS
chaturbate tiffanyclaire 2019-10-10 12:29:59
1h:58m:34s
2.42GB
1280x720
30FPS
chaturbate tiffanyclaire 2019-10-10 11:35:40
31m:6s
679.81MB
1280x720
30FPS
chaturbate tiffanyclaire 2019-10-10 06:51:26
28m:24s
617.39MB
1280x720
30FPS
chaturbate tiffanyclaire 2019-10-10 04:26:55
2h:13m:19s
2.79GB
1280x720
30FPS
chaturbate tiffanyclaire 2019-10-09 14:34:21
1h:53m:55s
2.30GB
1280x720
30FPS
chaturbate tiffanyclaire 2019-10-09 13:39:19
23m:45s
461.44MB
1280x720
30FPS