chaturbate wildtequilla 2019-10-10 14:57:31

Click the screencaps for zoom.


Public webcam show of wildtequilla chaturbate from 2019-10-10 14:57:31

Untouched and best quality possible.

Size: 105.34MB

Duration: 3m:0s

Dimension: 1920x1080

Framerate: 30FPS



User account required



Create an User account

Are you the model?


You might need VLC to play the video (every advanced media player will do).
VLC for Android

VLC for Windows/Mac OS X/Linux


{
 "streams":[
  {
   "index":0,
   "codec_name":"timed_id3",
   "codec_long_name":"timed ID3 metadata",
   "codec_type":"data",
   "codec_tag_string":"ID3 ",
   "codec_tag":"0x20334449",
   "id":"0x102",
   "r_frame_rate":"0/0",
   "avg_frame_rate":"0/0",
   "time_base":"1/90000",
   "start_pts":16066710,
   "start_time":"178.519000",
   "duration_ts":16201200,
   "duration":"180.013333",
   "disposition":{
    "default":0,
    "dub":0,
    "original":0,
    "comment":0,
    "lyrics":0,
    "karaoke":0,
    "forced":0,
    "hearing_impaired":0,
    "visual_impaired":0,
    "clean_effects":0,
    "attached_pic":0,
    "timed_thumbnails":0
   }
  },
  {
   "index":1,
   "codec_name":"h264",
   "codec_long_name":"H.264 / AVC / MPEG-4 AVC / MPEG-4 part 10",
   "profile":"High",
   "codec_type":"video",
   "codec_time_base":"1/60",
   "codec_tag_string":"[
    27
   ][
    0
   ][
    0
   ][
    0
   ]",
   "codec_tag":"0x001b",
   "width":1920,
   "height":1080,
   "coded_width":1920,
   "coded_height":1080,
   "has_b_frames":0,
   "sample_aspect_ratio":"1:1",
   "display_aspect_ratio":"16:9",
   "pix_fmt":"yuv420p",
   "level":40,
   "chroma_location":"left",
   "field_order":"progressive",
   "refs":1,
   "is_avc":"false",
   "nal_length_size":"0",
   "id":"0x100",
   "r_frame_rate":"30/1",
   "avg_frame_rate":"30/1",
   "time_base":"1/90000",
   "start_pts":16067880,
   "start_time":"178.532000",
   "duration_ts":16200030,
   "duration":"180.000333",
   "bits_per_raw_sample":"8",
   "disposition":{
    "default":0,
    "dub":0,
    "original":0,
    "comment":0,
    "lyrics":0,
    "karaoke":0,
    "forced":0,
    "hearing_impaired":0,
    "visual_impaired":0,
    "clean_effects":0,
    "attached_pic":0,
    "timed_thumbnails":0
   }
  },
  {
   "index":2,
   "codec_name":"aac",
   "codec_long_name":"AAC (Advanced Audio Coding)",
   "profile":"LC",
   "codec_type":"audio",
   "codec_time_base":"1/48000",
   "codec_tag_string":"[
    15
   ][
    0
   ][
    0
   ][
    0
   ]",
   "codec_tag":"0x000f",
   "sample_fmt":"fltp",
   "sample_rate":"48000",
   "channels":1,
   "channel_layout":"mono",
   "bits_per_sample":0,
   "id":"0x101",
   "r_frame_rate":"0/0",
   "avg_frame_rate":"0/0",
   "time_base":"1/90000",
   "start_pts":16066710,
   "start_time":"178.519000",
   "duration_ts":16199040,
   "duration":"179.989333",
   "bit_rate":"117750",
   "disposition":{
    "default":0,
    "dub":0,
    "original":0,
    "comment":0,
    "lyrics":0,
    "karaoke":0,
    "forced":0,
    "hearing_impaired":0,
    "visual_impaired":0,
    "clean_effects":0,
    "attached_pic":0,
    "timed_thumbnails":0
   }
  }
 ],
 "format":{
  "filename":"chaturbate-wildtequilla-1570719451.mp4",
  "nb_streams":3,
  "nb_programs":1,
  "format_name":"mpegts",
  "format_long_name":"MPEG-TS (MPEG-2 Transport Stream)",
  "start_time":"178.519000",
  "duration":"180.013333",
  "size":"110458460",
  "bit_rate":"4908901",
  "probe_score":50
 }
}

Related videos

chaturbate wildtequilla 2019-10-10 15:18:09
7h:3m:0s
14.00GB
1920x1080
30FPS
chaturbate wildtequilla 2019-10-11 15:30:11
3h:11m:25s
6.18GB
1920x1080
30FPS
chaturbate wildtequilla 2019-10-11 20:31:07
4m:18s
158.76MB
1920x1080
30FPS
chaturbate wildtequilla 2019-10-11 21:02:49
1h:27m:24s
3.08GB
1920x1080
30FPS
chaturbate wildtequilla 2019-10-11 22:56:01
5m:10s
176.68MB
1920x1080
30FPS
chaturbate wildtequilla 2019-10-11 23:19:20
6m:24s
228.23MB
1920x1080
31FPS
chaturbate wildtequilla 2019-10-09 22:48:37
35m:1s
1.27GB
1920x1080
30FPS
chaturbate wildtequilla 2019-10-09 20:23:37
2h:3m:49s
4.11GB
1920x1080
30FPS
chaturbate wildtequilla 2019-10-09 19:28:55
53m:52s
1.76GB
1920x1080
30FPS
chaturbate wildtequilla 2019-10-09 16:40:56
2h:16m:1s
4.74GB
1920x1080
30FPS
chaturbate wildtequilla 2019-10-09 15:02:53
1h:36m:17s
3.22GB
1920x1080
30FPS
chaturbate wildtequilla 2019-10-08 16:14:14
5h:9m:19s
9.92GB
1920x1080
30FPS