myfreecams aylin_dee 2019-05-20 20:14:13

Public webcam show of aylin_dee myfreecams from 2019-05-20 20:14:13

Untouched and best quality possible.

Size: 868.00MB

Duration: 1h:19m:52s

Dimension: 800x600


User account required



Create an User account


You might need VLC to play the video (every advanced media player will do).
VLC for Android
VLC for Windows/Mac OS X/Linux


{
 "streams":[
  {
   "index":0,
   "codec_name":"timed_id3",
   "codec_long_name":"timed ID3 metadata",
   "codec_type":"data",
   "codec_tag_string":"ID3 ",
   "codec_tag":"0x20334449",
   "id":"0x102",
   "r_frame_rate":"0/0",
   "avg_frame_rate":"0/0",
   "time_base":"1/90000",
   "start_pts":4924710,
   "start_time":"54.719000",
   "duration_ts":431314410,
   "duration":"4792.382333",
   "disposition":{
    "default":0,
    "dub":0,
    "original":0,
    "comment":0,
    "lyrics":0,
    "karaoke":0,
    "forced":0,
    "hearing_impaired":0,
    "visual_impaired":0,
    "clean_effects":0,
    "attached_pic":0,
    "timed_thumbnails":0
   }
  },
  {
   "index":1,
   "codec_name":"h264",
   "codec_long_name":"H.264 / AVC / MPEG-4 AVC / MPEG-4 part 10",
   "profile":"Main",
   "codec_type":"video",
   "codec_time_base":"1/60",
   "codec_tag_string":"[
    27
   ][
    0
   ][
    0
   ][
    0
   ]",
   "codec_tag":"0x001b",
   "width":800,
   "height":600,
   "coded_width":800,
   "coded_height":600,
   "has_b_frames":0,
   "sample_aspect_ratio":"1:1",
   "display_aspect_ratio":"4:3",
   "pix_fmt":"yuv420p",
   "level":41,
   "color_range":"tv",
   "color_space":"bt709",
   "color_transfer":"bt709",
   "color_primaries":"bt709",
   "chroma_location":"left",
   "field_order":"progressive",
   "refs":1,
   "is_avc":"false",
   "nal_length_size":"0",
   "id":"0x100",
   "r_frame_rate":"30/1",
   "avg_frame_rate":"30/1",
   "time_base":"1/90000",
   "start_pts":4924710,
   "start_time":"54.719000",
   "duration_ts":431314410,
   "duration":"4792.382333",
   "bits_per_raw_sample":"8",
   "disposition":{
    "default":0,
    "dub":0,
    "original":0,
    "comment":0,
    "lyrics":0,
    "karaoke":0,
    "forced":0,
    "hearing_impaired":0,
    "visual_impaired":0,
    "clean_effects":0,
    "attached_pic":0,
    "timed_thumbnails":0
   }
  },
  {
   "index":2,
   "codec_name":"aac",
   "codec_long_name":"AAC (Advanced Audio Coding)",
   "profile":"LC",
   "codec_type":"audio",
   "codec_time_base":"1/16000",
   "codec_tag_string":"[
    15
   ][
    0
   ][
    0
   ][
    0
   ]",
   "codec_tag":"0x000f",
   "sample_fmt":"fltp",
   "sample_rate":"16000",
   "channels":1,
   "channel_layout":"mono",
   "bits_per_sample":0,
   "id":"0x101",
   "r_frame_rate":"0/0",
   "avg_frame_rate":"0/0",
   "time_base":"1/90000",
   "start_pts":4924710,
   "start_time":"54.719000",
   "duration_ts":431299440,
   "duration":"4792.216000",
   "bit_rate":"60875",
   "disposition":{
    "default":0,
    "dub":0,
    "original":0,
    "comment":0,
    "lyrics":0,
    "karaoke":0,
    "forced":0,
    "hearing_impaired":0,
    "visual_impaired":0,
    "clean_effects":0,
    "attached_pic":0,
    "timed_thumbnails":0
   }
  }
 ],
 "format":{
  "filename":"myfreecams-aylin_dee-1558383253.mp4",
  "nb_streams":3,
  "nb_programs":1,
  "format_name":"mpegts",
  "format_long_name":"MPEG-TS (MPEG-2 Transport Stream)",
  "start_time":"54.719000",
  "duration":"4792.382333",
  "size":"910159888",
  "bit_rate":"1519344",
  "probe_score":50
 }
}