myfreecams miss_parsley2 2019-03-01 17:33:33

Click the screencaps for zoom.


Public webcam show of miss_parsley2 myfreecams from 2019-03-01 17:33:33

Untouched and best quality possible.

Size: 163.21MB

Duration: 17m:54s

Dimension: 640x480

Framerate: 0FPS


User account required



Create an User account

Are you the model?


{
 "streams":[
  {
   "index":0,
   "codec_name":"timed_id3",
   "codec_long_name":"timed ID3 metadata",
   "codec_type":"data",
   "codec_tag_string":"ID3 ",
   "codec_tag":"0x20334449",
   "id":"0x102",
   "r_frame_rate":"0/0",
   "avg_frame_rate":"0/0",
   "time_base":"1/90000",
   "start_pts":5702603082,
   "start_time":"63362.256467",
   "duration_ts":96735450,
   "duration":"1074.838333",
   "disposition":{
    "default":0,
    "dub":0,
    "original":0,
    "comment":0,
    "lyrics":0,
    "karaoke":0,
    "forced":0,
    "hearing_impaired":0,
    "visual_impaired":0,
    "clean_effects":0,
    "attached_pic":0,
    "timed_thumbnails":0
   }
  },
  {
   "index":1,
   "codec_name":"h264",
   "codec_long_name":"H.264 / AVC / MPEG-4 AVC / MPEG-4 part 10",
   "profile":"Constrained Baseline",
   "codec_type":"video",
   "codec_time_base":"0/2",
   "codec_tag_string":"[
    27
   ][
    0
   ][
    0
   ][
    0
   ]",
   "codec_tag":"0x001b",
   "width":640,
   "height":480,
   "coded_width":640,
   "coded_height":480,
   "has_b_frames":0,
   "sample_aspect_ratio":"0:1",
   "display_aspect_ratio":"0:1",
   "pix_fmt":"yuv420p",
   "level":31,
   "chroma_location":"left",
   "field_order":"progressive",
   "refs":1,
   "is_avc":"false",
   "nal_length_size":"0",
   "id":"0x100",
   "r_frame_rate":"90000/1",
   "avg_frame_rate":"0/0",
   "time_base":"1/90000",
   "start_pts":5702603082,
   "start_time":"63362.256467",
   "duration_ts":96732541,
   "duration":"1074.806011",
   "bits_per_raw_sample":"8",
   "disposition":{
    "default":0,
    "dub":0,
    "original":0,
    "comment":0,
    "lyrics":0,
    "karaoke":0,
    "forced":0,
    "hearing_impaired":0,
    "visual_impaired":0,
    "clean_effects":0,
    "attached_pic":0,
    "timed_thumbnails":0
   }
  },
  {
   "index":2,
   "codec_name":"aac",
   "codec_long_name":"AAC (Advanced Audio Coding)",
   "profile":"LC",
   "codec_type":"audio",
   "codec_time_base":"1/48000",
   "codec_tag_string":"[
    15
   ][
    0
   ][
    0
   ][
    0
   ]",
   "codec_tag":"0x000f",
   "sample_fmt":"fltp",
   "sample_rate":"48000",
   "channels":2,
   "channel_layout":"stereo",
   "bits_per_sample":0,
   "id":"0x101",
   "r_frame_rate":"0/0",
   "avg_frame_rate":"0/0",
   "time_base":"1/90000",
   "start_pts":5702603532,
   "start_time":"63362.261467",
   "duration_ts":96735000,
   "duration":"1074.833333",
   "bit_rate":"55125",
   "disposition":{
    "default":0,
    "dub":0,
    "original":0,
    "comment":0,
    "lyrics":0,
    "karaoke":0,
    "forced":0,
    "hearing_impaired":0,
    "visual_impaired":0,
    "clean_effects":0,
    "attached_pic":0,
    "timed_thumbnails":0
   }
  }
 ],
 "format":{
  "filename":"myfreecams-miss_parsley2-1551461613.mp4",
  "nb_streams":3,
  "nb_programs":1,
  "format_name":"mpegts",
  "format_long_name":"MPEG-TS (MPEG-2 Transport Stream)",
  "start_time":"63362.256467",
  "duration":"1074.838333",
  "size":"171134332",
  "bit_rate":"1273749",
  "probe_score":50
 }
}

Related videos

myfreecams miss_parsley2 2019-03-13 15:01:51
10m:44s
126.42MB
640x480
0FPS
myfreecams miss_parsley2 2019-03-14 08:44:07
34m:59s
625.01MB
640x480
0FPS
myfreecams miss_parsley2 2019-03-14 09:23:37
4m:58s
89.25MB
640x480
0FPS
myfreecams miss_parsley2 2019-03-14 09:30:15
1h:49m:37s
2.02GB
640x480
0FPS
myfreecams miss_parsley2 2019-03-14 11:29:15
1h:27m:39s
1.62GB
1280x720
0FPS
myfreecams miss_parsley2 2019-03-15 08:31:55
1h:2m:48s
1.21GB
800x600
0FPS
myfreecams miss_parsley2 2019-02-28 23:22:41
1h:39m:9s
2.56GB
1280x720
0FPS
myfreecams miss_parsley2 2019-02-26 22:55:43
12m:10s
410.63MB
1280x720
0FPS
myfreecams miss_parsley2 2019-02-25 21:19:54
41m:34s
1.29GB
1280x720
0FPS
myfreecams miss_parsley2 2019-02-24 21:31:03
42m:49s
1.22GB
1280x720
0FPS
myfreecams miss_parsley2 2019-02-24 18:52:21
8m:14s
119.56MB
1280x720
0FPS
myfreecams miss_parsley2 2019-02-21 12:49:00
1h:27m:5s
2.37GB
1280x720
0FPS