chaturbate punkyqueenx 2019-10-10 14:54:43

Screencaps are generated at a 1 image per 1 minute rate.
Click for zoom.


Public cam show video chaturbate punkyqueenx 2019-10-10 14:54:43

Untouched and best quality possible.

Watch punkyqueenx's (chaturbate) 5m:42s long public cam show video from 2019-10-10 14:54:43 at 1280x720 30FPS (125.01MB).

  • Size: 125.01MB
  • Duration: 5m:42s
  • Dimension: 1280x720
  • Framerate: 30FPS

You need an account.


Create an User account

Are you the model?


{
 "format": {
  "bit_rate": "3065893",
   "duration": "342.027189",
   "filename": "chaturbate-punkyqueenx-1570719283.mp4",
   "format_long_name": "MPEG-TS (MPEG-2 Transport Stream)",
   "format_name": "mpegts",
   "nb_programs": 1,
   "nb_streams": 3,
   "probe_score": 50,
   "size": "131077360",
   "start_time": "121.505144"
 },
  "streams": [
  {
   "avg_frame_rate": "0/0",
    "codec_long_name": "timed ID3 metadata",
    "codec_name": "timed_id3",
    "codec_tag": "0x20334449",
    "codec_tag_string": "ID3 ",
    "codec_type": "data",
    "disposition": {
    "attached_pic": 0,
     "clean_effects": 0,
     "comment": 0,
     "default": 0,
     "dub": 0,
     "forced": 0,
     "hearing_impaired": 0,
     "karaoke": 0,
     "lyrics": 0,
     "original": 0,
     "timed_thumbnails": 0,
     "visual_impaired": 0
   },
    "duration": "342.027189",
    "duration_ts": 30782447,
    "id": "0x102",
    "index": 0,
    "r_frame_rate": "0/0",
    "start_pts": 10935463,
    "start_time": "121.505144",
    "time_base": "1/90000"
  },
   {
   "avg_frame_rate": "30/1",
    "bits_per_raw_sample": "8",
    "chroma_location": "left",
    "codec_long_name": "H.264 / AVC / MPEG-4 AVC / MPEG-4 part 10",
    "codec_name": "h264",
    "codec_tag": "0x001b",
    "codec_tag_string": "[
    27
   ][
    0
   ][
    0
   ][
    0
   ]",
    "codec_time_base": "1/60",
    "codec_type": "video",
    "coded_height": 720,
    "coded_width": 1280,
    "display_aspect_ratio": "16:9",
    "disposition": {
    "attached_pic": 0,
     "clean_effects": 0,
     "comment": 0,
     "default": 0,
     "dub": 0,
     "forced": 0,
     "hearing_impaired": 0,
     "karaoke": 0,
     "lyrics": 0,
     "original": 0,
     "timed_thumbnails": 0,
     "visual_impaired": 0
   },
    "duration": "342.000333",
    "duration_ts": 30780030,
    "field_order": "progressive",
    "has_b_frames": 0,
    "height": 720,
    "id": "0x100",
    "index": 1,
    "is_avc": "false",
    "level": 31,
    "nal_length_size": "0",
    "pix_fmt": "yuv420p",
    "profile": "Main",
    "r_frame_rate": "30/1",
    "refs": 1,
    "sample_aspect_ratio": "1:1",
    "start_pts": 10937880,
    "start_time": "121.532000",
    "time_base": "1/90000",
    "width": 1280
  },
   {
   "avg_frame_rate": "0/0",
    "bit_rate": "94057",
    "bits_per_sample": 0,
    "channel_layout": "stereo",
    "channels": 2,
    "codec_long_name": "AAC (Advanced Audio Coding)",
    "codec_name": "aac",
    "codec_tag": "0x000f",
    "codec_tag_string": "[
    15
   ][
    0
   ][
    0
   ][
    0
   ]",
    "codec_time_base": "1/44100",
    "codec_type": "audio",
    "disposition": {
    "attached_pic": 0,
     "clean_effects": 0,
     "comment": 0,
     "default": 0,
     "dub": 0,
     "forced": 0,
     "hearing_impaired": 0,
     "karaoke": 0,
     "lyrics": 0,
     "original": 0,
     "timed_thumbnails": 0,
     "visual_impaired": 0
   },
    "duration": "341.983489",
    "duration_ts": 30778514,
    "id": "0x101",
    "index": 2,
    "profile": "LC",
    "r_frame_rate": "0/0",
    "sample_fmt": "fltp",
    "sample_rate": "44100",
    "start_pts": 10935463,
    "start_time": "121.505144",
    "time_base": "1/90000"
  }
 ]
}

Feature coming soon.

Next videos

chaturbate punkyqueenx 2019-10-10 15:09:46
39m:44s
877.80MB
1280x720
30FPS
chaturbate punkyqueenx 2019-10-10 16:08:22
52m:33s
1.10GB
1280x720
30FPS
chaturbate punkyqueenx 2019-10-10 17:36:17
7m:0s
144.00MB
1280x720
30FPS
chaturbate punkyqueenx 2019-10-10 18:01:30
36m:57s
775.16MB
1280x720
30FPS
chaturbate punkyqueenx 2019-10-11 14:04:12
11m:39s
258.35MB
1280x720
30FPS
chaturbate punkyqueenx 2019-10-11 14:19:49
29m:10s
524.82MB
1280x720
30FPS
chaturbate punkyqueenx 2019-10-11 15:22:14
32m:42s
700.46MB
1280x720
30FPS
chaturbate punkyqueenx 2019-10-11 16:27:58
2h:17m:18s
2.91GB
1280x720
30FPS
chaturbate punkyqueenx 2019-10-12 13:34:13
21m:15s
463.75MB
1280x720
30FPS
chaturbate punkyqueenx 2019-10-12 14:37:57
3m:36s
78.27MB
1280x720
30FPS

Previous videos

chaturbate punkyqueenx 2019-10-10 13:25:59
1h:21m:46s
1.79GB
1280x720
30FPS
chaturbate punkyqueenx 2019-10-10 00:12:55
12m:3s
272.83MB
1280x720
30FPS
chaturbate punkyqueenx 2019-10-09 23:25:53
38m:40s
858.39MB
1280x720
30FPS
chaturbate punkyqueenx 2019-10-09 20:56:07
19m:51s
449.03MB
1280x720
30FPS
chaturbate punkyqueenx 2019-10-09 20:16:50
23m:31s
532.76MB
1280x720
30FPS
chaturbate punkyqueenx 2019-10-07 17:08:48
1h:22m:51s
1.82GB
1280x720
30FPS
chaturbate punkyqueenx 2019-10-07 16:05:38
15m:13s
343.46MB
1280x720
30FPS
chaturbate punkyqueenx 2019-10-07 15:08:45
14m:4s
317.67MB
1280x720
30FPS
chaturbate punkyqueenx 2019-10-07 14:42:18
19m:0s
428.24MB
1280x720
30FPS
chaturbate punkyqueenx 2019-10-07 14:04:33
35m:49s
806.25MB
1280x720
30FPS