chaturbate tiffanyclaire 2019-10-10 14:55:32

Screencaps are generated at a 1 image per 1 minute rate.
Click for zoom.


Public cam show video chaturbate tiffanyclaire 2019-10-10 14:55:32

Untouched and best quality possible.

Watch tiffanyclaire's (chaturbate) 6m:34s long public cam show video from 2019-10-10 14:55:32 at 1280x720 30FPS (142.20MB).

  • Size: 142.20MB
  • Duration: 6m:34s
  • Dimension: 1280x720
  • Framerate: 30FPS

You need an account.


Create an User account

Are you the model?


{
 "format": {
  "bit_rate": "3023704",
   "duration": "394.500333",
   "filename": "chaturbate-tiffanyclaire-1570719332.mp4",
   "format_long_name": "MPEG-TS (MPEG-2 Transport Stream)",
   "format_name": "mpegts",
   "nb_programs": 1,
   "nb_streams": 3,
   "probe_score": 50,
   "size": "149106560",
   "start_time": "12111.032000"
 },
  "streams": [
  {
   "avg_frame_rate": "0/0",
    "codec_long_name": "timed ID3 metadata",
    "codec_name": "timed_id3",
    "codec_tag": "0x20334449",
    "codec_tag_string": "ID3 ",
    "codec_type": "data",
    "disposition": {
    "attached_pic": 0,
     "clean_effects": 0,
     "comment": 0,
     "default": 0,
     "dub": 0,
     "forced": 0,
     "hearing_impaired": 0,
     "karaoke": 0,
     "lyrics": 0,
     "original": 0,
     "timed_thumbnails": 0,
     "visual_impaired": 0
   },
    "duration": "394.500333",
    "duration_ts": 35505030,
    "id": "0x102",
    "index": 0,
    "r_frame_rate": "0/0",
    "start_pts": 1089992880,
    "start_time": "12111.032000",
    "time_base": "1/90000"
  },
   {
   "avg_frame_rate": "30/1",
    "bits_per_raw_sample": "8",
    "chroma_location": "left",
    "codec_long_name": "H.264 / AVC / MPEG-4 AVC / MPEG-4 part 10",
    "codec_name": "h264",
    "codec_tag": "0x001b",
    "codec_tag_string": "[
    27
   ][
    0
   ][
    0
   ][
    0
   ]",
    "codec_time_base": "1/60",
    "codec_type": "video",
    "coded_height": 720,
    "coded_width": 1280,
    "display_aspect_ratio": "16:9",
    "disposition": {
    "attached_pic": 0,
     "clean_effects": 0,
     "comment": 0,
     "default": 0,
     "dub": 0,
     "forced": 0,
     "hearing_impaired": 0,
     "karaoke": 0,
     "lyrics": 0,
     "original": 0,
     "timed_thumbnails": 0,
     "visual_impaired": 0
   },
    "duration": "394.500333",
    "duration_ts": 35505030,
    "field_order": "progressive",
    "has_b_frames": 0,
    "height": 720,
    "id": "0x100",
    "index": 1,
    "is_avc": "false",
    "level": 31,
    "nal_length_size": "0",
    "pix_fmt": "yuv420p",
    "profile": "Main",
    "r_frame_rate": "30/1",
    "refs": 1,
    "sample_aspect_ratio": "1:1",
    "start_pts": 1089992880,
    "start_time": "12111.032000",
    "time_base": "1/90000",
    "width": 1280
  },
   {
   "avg_frame_rate": "0/0",
    "bit_rate": "96468",
    "bits_per_sample": 0,
    "channel_layout": "stereo",
    "channels": 2,
    "codec_long_name": "AAC (Advanced Audio Coding)",
    "codec_name": "aac",
    "codec_tag": "0x000f",
    "codec_tag_string": "[
    15
   ][
    0
   ][
    0
   ][
    0
   ]",
    "codec_time_base": "1/44100",
    "codec_type": "audio",
    "disposition": {
    "attached_pic": 0,
     "clean_effects": 0,
     "comment": 0,
     "default": 0,
     "dub": 0,
     "forced": 0,
     "hearing_impaired": 0,
     "karaoke": 0,
     "lyrics": 0,
     "original": 0,
     "timed_thumbnails": 0,
     "visual_impaired": 0
   },
    "duration": "394.437356",
    "duration_ts": 35499362,
    "id": "0x101",
    "index": 2,
    "profile": "LC",
    "r_frame_rate": "0/0",
    "sample_fmt": "fltp",
    "sample_rate": "44100",
    "start_pts": 1089994437,
    "start_time": "12111.049300",
    "time_base": "1/90000"
  }
 ]
}

Feature coming soon.

Next videos

chaturbate tiffanyclaire 2019-10-10 15:41:34
1h:10m:40s
1.46GB
1280x720
30FPS
chaturbate tiffanyclaire 2019-10-10 16:55:54
29m:49s
621.04MB
1280x720
30FPS
chaturbate tiffanyclaire 2019-10-10 17:30:33
30m:27s
626.78MB
1280x720
30FPS
chaturbate tiffanyclaire 2019-10-11 04:30:59
4m:34s
93.81MB
1280x720
30FPS
chaturbate tiffanyclaire 2019-10-11 06:29:00
5m:36s
111.58MB
1280x720
31FPS
chaturbate tiffanyclaire 2019-10-12 11:51:05
23m:24s
457.98MB
1280x720
30FPS
chaturbate tiffanyclaire 2019-10-12 14:03:39
42m:9s
847.95MB
1280x720
30FPS
chaturbate tiffanyclaire 2019-10-12 17:19:42
15m:1s
297.06MB
1280x720
30FPS
chaturbate tiffanyclaire 2019-10-12 18:00:59
15m:18s
300.76MB
1280x720
30FPS
chaturbate tiffanyclaire 2019-10-12 18:24:24
45m:24s
898.00MB
1280x720
31FPS

Previous videos

chaturbate tiffanyclaire 2019-10-10 12:29:59
1h:58m:34s
2.42GB
1280x720
30FPS
chaturbate tiffanyclaire 2019-10-10 11:35:40
31m:6s
679.81MB
1280x720
30FPS
chaturbate tiffanyclaire 2019-10-10 06:51:26
28m:24s
617.39MB
1280x720
30FPS
chaturbate tiffanyclaire 2019-10-10 04:26:55
2h:13m:19s
2.79GB
1280x720
30FPS
chaturbate tiffanyclaire 2019-10-09 14:34:21
1h:53m:55s
2.30GB
1280x720
30FPS
chaturbate tiffanyclaire 2019-10-09 13:39:19
23m:45s
461.44MB
1280x720
30FPS
chaturbate tiffanyclaire 2019-10-09 13:00:09
24m:52s
496.12MB
1280x720
30FPS
chaturbate tiffanyclaire 2019-10-09 07:16:24
1h:30m:43s
1.80GB
1280x720
30FPS
chaturbate tiffanyclaire 2019-10-09 04:31:27
2h:18m:13s
2.73GB
1280x720
30FPS
chaturbate tiffanyclaire 2019-10-09 03:50:29
29m:12s
588.49MB
1280x720
30FPS