chaturbate yecheme 2019-07-10 04:05:51

Screencaps are generated at a 1 image per 1 minute rate.
Click for zoom.


Watch public cam show video of model chaturbate yecheme 2019-07-10 04:05:51

Untouched and best quality possible.

  • Size: 678.37MB
  • Duration: 30m:1s
  • Dimension: 1280x720
  • Framerate: 0FPS

You need an account.


Create an User account

Are you the model?


{
 "format": {
  "bit_rate": "3158718",
   "duration": "1801.541200",
   "filename": "chaturbate-yecheme-1562731551.mp4",
   "format_long_name": "MPEG-TS (MPEG-2 Transport Stream)",
   "format_name": "mpegts",
   "nb_programs": 1,
   "nb_streams": 3,
   "probe_score": 50,
   "size": "711320184",
   "start_time": "107.991133"
 },
  "streams": [
  {
   "avg_frame_rate": "0/0",
    "codec_long_name": "timed ID3 metadata",
    "codec_name": "timed_id3",
    "codec_tag": "0x20334449",
    "codec_tag_string": "ID3 ",
    "codec_type": "data",
    "disposition": {
    "attached_pic": 0,
     "clean_effects": 0,
     "comment": 0,
     "default": 0,
     "dub": 0,
     "forced": 0,
     "hearing_impaired": 0,
     "karaoke": 0,
     "lyrics": 0,
     "original": 0,
     "timed_thumbnails": 0,
     "visual_impaired": 0
   },
    "duration": "1801.541200",
    "duration_ts": 162138708,
    "id": "0x102",
    "index": 0,
    "r_frame_rate": "0/0",
    "start_pts": 9719202,
    "start_time": "107.991133",
    "time_base": "1/90000"
  },
   {
   "avg_frame_rate": "30/1",
    "bits_per_raw_sample": "8",
    "chroma_location": "left",
    "codec_long_name": "H.264 / AVC / MPEG-4 AVC / MPEG-4 part 10",
    "codec_name": "h264",
    "codec_tag": "0x001b",
    "codec_tag_string": "[
    27
   ][
    0
   ][
    0
   ][
    0
   ]",
    "codec_time_base": "1/60",
    "codec_type": "video",
    "coded_height": 720,
    "coded_width": 1280,
    "display_aspect_ratio": "16:9",
    "disposition": {
    "attached_pic": 0,
     "clean_effects": 0,
     "comment": 0,
     "default": 0,
     "dub": 0,
     "forced": 0,
     "hearing_impaired": 0,
     "karaoke": 0,
     "lyrics": 0,
     "original": 0,
     "timed_thumbnails": 0,
     "visual_impaired": 0
   },
    "duration": "1801.500333",
    "duration_ts": 162135030,
    "field_order": "progressive",
    "has_b_frames": 0,
    "height": 720,
    "id": "0x100",
    "index": 1,
    "is_avc": "false",
    "level": 31,
    "nal_length_size": "0",
    "pix_fmt": "yuv420p",
    "profile": "Main",
    "r_frame_rate": "30/1",
    "refs": 1,
    "sample_aspect_ratio": "1:1",
    "start_pts": 9722880,
    "start_time": "108.032000",
    "time_base": "1/90000",
    "width": 1280
  },
   {
   "avg_frame_rate": "0/0",
    "bit_rate": "97846",
    "bits_per_sample": 0,
    "channel_layout": "stereo",
    "channels": 2,
    "codec_long_name": "AAC (Advanced Audio Coding)",
    "codec_name": "aac",
    "codec_tag": "0x000f",
    "codec_tag_string": "[
    15
   ][
    0
   ][
    0
   ][
    0
   ]",
    "codec_time_base": "1/44100",
    "codec_type": "audio",
    "disposition": {
    "attached_pic": 0,
     "clean_effects": 0,
     "comment": 0,
     "default": 0,
     "dub": 0,
     "forced": 0,
     "hearing_impaired": 0,
     "karaoke": 0,
     "lyrics": 0,
     "original": 0,
     "timed_thumbnails": 0,
     "visual_impaired": 0
   },
    "duration": "1801.496956",
    "duration_ts": 162134726,
    "id": "0x101",
    "index": 2,
    "profile": "LC",
    "r_frame_rate": "0/0",
    "sample_fmt": "fltp",
    "sample_rate": "44100",
    "start_pts": 9719202,
    "start_time": "107.991133",
    "time_base": "1/90000"
  }
 ]
}

Feature coming soon.

Next videos

chaturbate yecheme 2019-07-10 05:53:05
3m:18s
74.97MB
1280x720
30FPS
chaturbate yecheme 2019-07-10 06:14:39
1h:14m:24s
1.64GB
1280x720
0FPS
chaturbate yecheme 2019-07-10 07:40:47
19m:28s
430.48MB
1280x720
0FPS
chaturbate yecheme 2019-07-11 02:32:50
35m:40s
798.44MB
1280x720
0FPS
chaturbate yecheme 2019-07-11 03:15:24
59m:9s
1.30GB
1280x720
0FPS
chaturbate yecheme 2019-07-11 04:54:59
47m:10s
1.05GB
1280x720
0FPS
chaturbate yecheme 2019-07-11 05:56:57
18m:16s
414.49MB
1280x720
0FPS
chaturbate yecheme 2019-07-11 06:39:15
33m:19s
750.40MB
1280x720
0FPS
chaturbate yecheme 2019-07-11 07:28:34
15m:48s
351.17MB
1280x720
0FPS
chaturbate yecheme 2019-07-12 02:29:18
2h:35m:22s
3.43GB
1280x720
0FPS

Previous videos

chaturbate yecheme 2019-07-10 02:52:51
1h:10m:40s
1.57GB
1280x720
0FPS
chaturbate yecheme 2019-07-10 02:23:46
26m:48s
608.38MB
1280x720
0FPS
chaturbate yecheme 2019-07-09 08:11:07
41m:13s
929.04MB
1280x720
0FPS
chaturbate yecheme 2019-07-09 06:35:36
1h:15m:40s
1.68GB
1280x720
0FPS
chaturbate yecheme 2019-07-09 02:30:59
3h:38m:46s
4.85GB
1280x720
0FPS
chaturbate yecheme 2019-07-08 07:31:08
19m:34s
443.96MB
1280x720
0FPS
chaturbate yecheme 2019-07-08 07:09:33
7m:4s
163.42MB
1280x720
0FPS
chaturbate yecheme 2019-07-08 05:23:28
1h:23m:0s
1.84GB
1280x720
0FPS
chaturbate yecheme 2019-07-08 02:27:24
2h:8m:3s
2.83GB
1280x720
0FPS
chaturbate yecheme 2019-07-07 06:29:08
1h:25m:51s
1.89GB
1280x720
0FPS