chaturbate yecheme 2019-07-13 07:11:02

Screencaps are generated at a 1 image per 1 minute rate.
Click for zoom.


Watch public cam show video of model chaturbate yecheme 2019-07-13 07:11:02

Untouched and best quality possible.

  • Size: 834.73MB
  • Duration: 37m:3s
  • Dimension: 1280x720
  • Framerate: 0FPS

You need an account.


Create an User account

Are you the model?


{
 "format": {
  "bit_rate": "3149867",
   "duration": "2223.028066",
   "filename": "chaturbate-yecheme-1563001862.mp4",
   "format_long_name": "MPEG-TS (MPEG-2 Transport Stream)",
   "format_name": "mpegts",
   "nb_programs": 1,
   "nb_streams": 3,
   "probe_score": 50,
   "size": "875280436",
   "start_time": "1635.004267"
 },
  "streams": [
  {
   "avg_frame_rate": "0/0",
    "codec_long_name": "timed ID3 metadata",
    "codec_name": "timed_id3",
    "codec_tag": "0x20334449",
    "codec_tag_string": "ID3 ",
    "codec_type": "data",
    "disposition": {
    "attached_pic": 0,
     "clean_effects": 0,
     "comment": 0,
     "default": 0,
     "dub": 0,
     "forced": 0,
     "hearing_impaired": 0,
     "karaoke": 0,
     "lyrics": 0,
     "original": 0,
     "timed_thumbnails": 0,
     "visual_impaired": 0
   },
    "duration": "2223.028067",
    "duration_ts": 200072526,
    "id": "0x102",
    "index": 0,
    "r_frame_rate": "0/0",
    "start_pts": 147150384,
    "start_time": "1635.004267",
    "time_base": "1/90000"
  },
   {
   "avg_frame_rate": "30/1",
    "bits_per_raw_sample": "8",
    "chroma_location": "left",
    "codec_long_name": "H.264 / AVC / MPEG-4 AVC / MPEG-4 part 10",
    "codec_name": "h264",
    "codec_tag": "0x001b",
    "codec_tag_string": "[
    27
   ][
    0
   ][
    0
   ][
    0
   ]",
    "codec_time_base": "1/60",
    "codec_type": "video",
    "coded_height": 720,
    "coded_width": 1280,
    "display_aspect_ratio": "16:9",
    "disposition": {
    "attached_pic": 0,
     "clean_effects": 0,
     "comment": 0,
     "default": 0,
     "dub": 0,
     "forced": 0,
     "hearing_impaired": 0,
     "karaoke": 0,
     "lyrics": 0,
     "original": 0,
     "timed_thumbnails": 0,
     "visual_impaired": 0
   },
    "duration": "2223.000333",
    "duration_ts": 200070030,
    "field_order": "progressive",
    "has_b_frames": 0,
    "height": 720,
    "id": "0x100",
    "index": 1,
    "is_avc": "false",
    "level": 31,
    "nal_length_size": "0",
    "pix_fmt": "yuv420p",
    "profile": "Main",
    "r_frame_rate": "30/1",
    "refs": 1,
    "sample_aspect_ratio": "1:1",
    "start_pts": 147152880,
    "start_time": "1635.032000",
    "time_base": "1/90000",
    "width": 1280
  },
   {
   "avg_frame_rate": "0/0",
    "bit_rate": "89922",
    "bits_per_sample": 0,
    "channel_layout": "stereo",
    "channels": 2,
    "codec_long_name": "AAC (Advanced Audio Coding)",
    "codec_name": "aac",
    "codec_tag": "0x000f",
    "codec_tag_string": "[
    15
   ][
    0
   ][
    0
   ][
    0
   ]",
    "codec_time_base": "1/44100",
    "codec_type": "audio",
    "disposition": {
    "attached_pic": 0,
     "clean_effects": 0,
     "comment": 0,
     "default": 0,
     "dub": 0,
     "forced": 0,
     "hearing_impaired": 0,
     "karaoke": 0,
     "lyrics": 0,
     "original": 0,
     "timed_thumbnails": 0,
     "visual_impaired": 0
   },
    "duration": "2222.985656",
    "duration_ts": 200068709,
    "id": "0x101",
    "index": 2,
    "profile": "LC",
    "r_frame_rate": "0/0",
    "sample_fmt": "fltp",
    "sample_rate": "44100",
    "start_pts": 147150384,
    "start_time": "1635.004267",
    "time_base": "1/90000"
  }
 ]
}

Feature coming soon.

Next videos

chaturbate yecheme 2019-07-14 02:17:35
1h:39m:21s
2.20GB
1280x720
0FPS
chaturbate yecheme 2019-07-14 04:44:55
1h:4m:1s
1.42GB
1280x720
0FPS
chaturbate yecheme 2019-07-15 02:28:50
1h:9m:25s
1.54GB
1280x720
0FPS
chaturbate yecheme 2019-07-15 03:52:15
16m:27s
370.85MB
1280x720
0FPS
chaturbate yecheme 2019-07-15 04:09:56
4m:18s
97.12MB
1280x720
30FPS
chaturbate yecheme 2019-07-15 04:29:14
1h:26m:55s
1.93GB
1280x720
0FPS
chaturbate yecheme 2019-07-15 06:37:00
1h:13m:6s
1.62GB
1280x720
0FPS
chaturbate yecheme 2019-07-17 03:22:52
56m:42s
1.25GB
1280x720
0FPS
chaturbate yecheme 2019-07-17 04:35:55
56m:54s
1.26GB
1280x720
0FPS
chaturbate yecheme 2019-07-17 06:15:51
40m:45s
928.23MB
1280x720
0FPS

Previous videos

chaturbate yecheme 2019-07-13 06:48:38
21m:28s
484.14MB
1280x720
0FPS
chaturbate yecheme 2019-07-13 05:19:38
41m:3s
930.08MB
1280x720
0FPS
chaturbate yecheme 2019-07-13 03:32:46
1h:15m:3s
1.66GB
1280x720
0FPS
chaturbate yecheme 2019-07-13 02:36:46
54m:22s
1.21GB
1280x720
0FPS
chaturbate yecheme 2019-07-12 07:29:48
22m:58s
522.35MB
1280x720
0FPS
chaturbate yecheme 2019-07-12 05:44:09
1h:13m:18s
1.63GB
1280x720
0FPS
chaturbate yecheme 2019-07-12 02:29:18
2h:35m:22s
3.43GB
1280x720
0FPS
chaturbate yecheme 2019-07-11 07:28:34
15m:48s
351.17MB
1280x720
0FPS
chaturbate yecheme 2019-07-11 06:39:15
33m:19s
750.40MB
1280x720
0FPS
chaturbate yecheme 2019-07-11 05:56:57
18m:16s
414.49MB
1280x720
0FPS